2 сезон

iTunes

MVO

1

2 сезон

iTunes

iTunes

1 сезон

RePack

30

Новинка

ВАЖНО

ИГРА 18+

pack

RePack

MK11
pack

Легкие деньги

RePack

jed

RePack

fifa19

RePack

RDR2

RePack

NEED FOR SPEED™ PAYBACK

4 сезон

9 сезон

Бесстыжие 9 сезон

Все сериалы

все сериалы на PB.wtf

RePack

FAR CRY 5

Anonymous, добрый день, мы не успеваем собрать деньги на оплату серверов за декабрь и январь, помогите нам пожалуйста в это трудное время. В качестве благодарности мы отключим Вам всю рекламу на сайте (укажите свой ник в строку Ваше имя)!

×
  
Magnet ссылка

Electric Light Orchestra - Secret Messages (35th Anniversary Edition) - 2019/ FLAC/ image +.cue/ lossless/ Progressive Rock pb.wtf

Electric Light Orchestra - Secret Messages через торрент pb.wtf

Размер: 612 MB | Добавлен: 1 год 1 мес. назад | Торрент скачан:17 раз
Скачать  

12-12-2019 09:06 Electric Light Orchestra - Secret Messages Скачать торрент  


Electric Light Orchestra - Secret Messages (35th Anniversary Edition)


Год издания: 2019
Страна: UK
Жанр: Progressive Rock
Продолжительность: 01:11:56
Лейбл издания: Sony Music
Страна-выпуска диска: Japan
Номер по каталогу: SICP-31313
Формат: FLAC
Битрейт аудио: Lossless
Тип рипа: image +.cue
Наличие сканов в содержимом раздачи: да


01. Secret Messages (4:43)
02. Loser Gone Wild (5:27)
03. Bluebird (4:13)
04. Take Me On and On (4:59)
05. Stranger (4:29)
06. No Way Out (3:28)
07. Letter from Spain (2:59)
08. Danger Ahead (3:47)
09. Four Little Diamonds (4:10)
10. Train of Gold (4:22)
11. Endless Lies (3:35)
12. Buildings Have Eyes (4:04)
13. Rock 'N' Roll Is King (3:14)
14. Mandalay (5:19)
15. Time After Time (3:56)
16. After All (Shorter Version) (0:40)
17. Hello My Old Friend (8:31)

Код:

Exact Audio Copy V1.3 from 2. September 2016

Отчёт EAC об извлечении, выполненном 8. декабря 2019, 22:00

Electric Light Orchestra / Secret Messages

Дисковод: PLEXTOR DVDR   PX-755A   Adapter: 1  ID: 1

Режим чтения                 : Достоверность
Использование точного потока : Да
Отключение кэша аудио        : Да
Использование указателей C2  : Нет

Коррекция смещения при чтении                     : 30
Способность читать области Lead-in и Lead-out     : Нет
Заполнение пропущенных сэмплов тишиной            : Да
Удаление блоков с тишиной в начале и конце        : Нет
При вычислениях CRC использовались нулевые сэмплы : Да
Интерфейс                                         : Встроенный Win32-интерфейс для Win NT/2000

Выходной формат          : Пользовательский кодировщик
Выбранный битрейт        : 128 kBit/s
Качество                 : Высокий
Добавление ID3-тега      : Нет
Утилита сжатия           : C:\Program Files (x86)\Exact Audio Copy\Flac\flac.exe
Дополнительные параметры : -V -8 -T "Date=%year%" -T "Genre=%genre%" %source%

TOC извлечённого CD

     Трек |   Старт  | Длительность | Начальный сектор | Конечный сектор
    ---------------------------------------------------------------------
       1  |  0:00.00 |    4:43.30   |           0      |      21254
       2  |  4:43.30 |    5:27.06   |       21255      |      45785
       3  | 10:10.36 |    4:13.22   |       45786      |      64782
       4  | 14:23.58 |    4:59.17   |       64783      |      87224
       5  | 19:23.00 |    4:28.64   |       87225      |     107388
       6  | 23:51.64 |    3:28.03   |      107389      |     122991
       7  | 27:19.67 |    2:58.46   |      122992      |     136387
       8  | 30:18.38 |    3:47.06   |      136388      |     153418
       9  | 34:05.44 |    4:09.55   |      153419      |     172148
      10  | 38:15.24 |    4:21.62   |      172149      |     191785
      11  | 42:37.11 |    3:34.69   |      191786      |     207904
      12  | 46:12.05 |    4:03.65   |      207905      |     226194
      13  | 50:15.70 |    3:13.68   |      226195      |     240737
      14  | 53:29.63 |    5:19.04   |      240738      |     264666
      15  | 58:48.67 |    3:55.65   |      264667      |     282356
      16  | 62:44.57 |    0:39.74   |      282357      |     285355
      17  | 63:24.56 |    8:31.04   |      285356      |     323684

Характеристики диапазона извлечения и сообщения об ошибках

Выбранный диапазон

     Имя файла D:\РАЗДАЧА\Electric Light Orchestra - Secret Messages - 2019 (35th Anniversary Edition - Japan)\Electric Light Orchestra - Secret Messages.wav

     Пиковый уровень 100.0 %
     Скорость извлечения 8.8 X
     Качество диапазона 100.0 %
     CRC теста 0B87BEFE
     CRC копии 0B87BEFE
     Копирование... OK

Ошибок не произошло

AccurateRip: сводка

Трек  1  отсутствует в базе данных
Трек  2  отсутствует в базе данных
Трек  3  отсутствует в базе данных
Трек  4  отсутствует в базе данных
Трек  5  отсутствует в базе данных
Трек  6  отсутствует в базе данных
Трек  7  отсутствует в базе данных
Трек  8  отсутствует в базе данных
Трек  9  отсутствует в базе данных
Трек 10  отсутствует в базе данных
Трек 11  отсутствует в базе данных
Трек 12  отсутствует в базе данных
Трек 13  отсутствует в базе данных
Трек 14  отсутствует в базе данных
Трек 15  отсутствует в базе данных
Трек 16  отсутствует в базе данных
Трек 17  отсутствует в базе данных

Ни одного трека нет в базе AccurateRip

Конец отчёта

Код:

REM GENRE Rock
REM DATE 2019
REM DISCID EA10DB11
REM COMMENT "ExactAudioCopy v1.3"
PERFORMER "Electric Light Orchestra"
TITLE "Secret Messages"
REM COMPOSER ""
FILE "Electric Light Orchestra - Secret Messages.flac" WAVE
  TRACK 01 AUDIO
    TITLE "Secret Messages"
    PERFORMER "Electric Light Orchestra"
    REM COMPOSER ""
    INDEX 01 00:00:00
  TRACK 02 AUDIO
    TITLE "Loser Gone Wild"
    PERFORMER "Electric Light Orchestra"
    REM COMPOSER ""
    INDEX 01 04:43:30
  TRACK 03 AUDIO
    TITLE "Bluebird"
    PERFORMER "Electric Light Orchestra"
    REM COMPOSER ""
    INDEX 01 10:10:36
  TRACK 04 AUDIO
    TITLE "Take Me On and On"
    PERFORMER "Electric Light Orchestra"
    REM COMPOSER ""
    INDEX 01 14:23:58
  TRACK 05 AUDIO
    TITLE "Stranger"
    PERFORMER "Electric Light Orchestra"
    REM COMPOSER ""
    INDEX 01 19:23:00
  TRACK 06 AUDIO
    TITLE "No Way Out"
    PERFORMER "Electric Light Orchestra"
    REM COMPOSER ""
    INDEX 01 23:51:64
  TRACK 07 AUDIO
    TITLE "Letter from Spain"
    PERFORMER "Electric Light Orchestra"
    REM COMPOSER ""
    INDEX 01 27:19:67
  TRACK 08 AUDIO
    TITLE "Danger Ahead"
    PERFORMER "Electric Light Orchestra"
    REM COMPOSER ""
    INDEX 01 30:18:38
  TRACK 09 AUDIO
    TITLE "Four Little Diamonds"
    PERFORMER "Electric Light Orchestra"
    REM COMPOSER ""
    INDEX 01 34:05:44
  TRACK 10 AUDIO
    TITLE "Train of Gold"
    PERFORMER "Electric Light Orchestra"
    REM COMPOSER ""
    INDEX 01 38:15:24
  TRACK 11 AUDIO
    TITLE "Endless Lies"
    PERFORMER "Electric Light Orchestra"
    REM COMPOSER ""
    INDEX 01 42:37:11
  TRACK 12 AUDIO
    TITLE "Buildings Have Eyes"
    PERFORMER "Electric Light Orchestra"
    REM COMPOSER ""
    INDEX 01 46:12:05
  TRACK 13 AUDIO
    TITLE "Rock 'N' Roll Is King"
    PERFORMER "Electric Light Orchestra"
    REM COMPOSER ""
    INDEX 01 50:15:70
  TRACK 14 AUDIO
    TITLE "Mandalay"
    PERFORMER "Electric Light Orchestra"
    REM COMPOSER ""
    INDEX 01 53:29:63
  TRACK 15 AUDIO
    TITLE "Time After Time"
    PERFORMER "Electric Light Orchestra"
    REM COMPOSER ""
    INDEX 01 58:48:67
  TRACK 16 AUDIO
    TITLE "After All (Shorter Version)"
    PERFORMER "Electric Light Orchestra"
    REM COMPOSER ""
    INDEX 01 62:44:57
  TRACK 17 AUDIO
    TITLE "Hello My Old Friend"
    PERFORMER "Electric Light Orchestra"
    REM COMPOSER ""
    INDEX 01 63:24:56










pb.wtf



Скачать Electric Light Orchestra - Secret Messages через торрент https://i111.fastpic.ru/big/2019/1211/b7/1bfd256c195ae7148896c8ffe8b2f1b7.png Скачать фильм Electric Light Orchestra - Secret Messages через торрент бесплантно в хорошем качестве Трэклист Secret Messages (4:43) Loser Gone Wild (5:27) Bluebird (4:13) Take Me On and On (4:59) Stranger (4:29) ... 5 10 1
Торрент: Зарегистрирован [2019-12-12 09:06] · скачан: 17 раз
Статус: √ проверено
Размер: 612 MB
Как cкачать? Как скачать Electric Light Orchestra - Secret Messages через торрент | UTorrent

28-11-2019 20:33  

Отключить всю рекламу на сайте

    Дорогой пользователь! Огромная просьба, поблагодарите релизера, оцените раздачу и оставьте свои комментарий, если Вы скачали Electric Light Orchestra - Secret Messages через торрент бесплатно! Внесите свою лепту в развитие PiratBit!
    Комментировать посты могут только пользователи прошедшие не сложную регистрацию
    Показать сообщения:    

    Electric Light Orchestra - Secret Messages через торрент
    Скачать бесплатно Electric Light Orchestra - Secret Messages
    Electric Light Orchestra - Secret Messages скачать торрент
    Electric Light Orchestra - Secret Messages смотреть онлайн
    Cкачать фильм Electric Light Orchestra - Secret Messages бесплатно
    Electric Light Orchestra - Secret Messages скачать торрент в хорошем качестве
    Electric Light Orchestra - Secret Messages смотреть онлайн бесплатно в хорошем качестве


    Вы не можете начинать темы
    Вы не можете отвечать на сообщения
    Вы не можете редактировать свои сообщения
    Вы не можете удалять свои сообщения
    Вы не можете голосовать в опросах
    Вы не можете прикреплять файлы к сообщениям
    Вы можете скачивать файлы