Ссылка на приватное зеркало всего за 1$. Внимание количество ограничено!!!

OK

1+1

iTunes

мы

OK

1

WEB-DLRip

Джокер

Пифагор

Ведьмак / The Witcher сериал

Лицензия

ПШазам

ОК

Оно 2

iTunes

30
pack

Вам бонус

ВАЖНО

!!Акция!!

Alien_RageХит недели

RePack

Resident Evil 21

ИГРА 18+

pack

RePack

jed

!!Акция!!

Alien_Rage

RePack

fifa19

RePack

Assassins Creed: Odyssey

RePack

NEED FOR SPEED™ PAYBACK

4 сезон

9 сезон

Бесстыжие 9 сезон

Все сериалы

все сериалы на PB.wtf

RePack

FAR CRY 5
  

Кто твоя бабушка, чувак? / C'est quoi cette mamie?! (Габриэль Жюльен-Лаферье) [2019 г., комедия, WEB-DLRip, Профессиональный многоголосый закадровый "iTunes"] pb.wtf

Кто твоя бабушка, чувак? через торрент pb.wtf

Раздают: 1 [ 0 KB/s ]
Размер: 709 MB | Добавлен: 1 мес. 8 д. назад | Торрент скачан:57 раз
Скачать  

12-12-2019 18:36 Кто твоя бабушка, чувак? Скачать торрент  

Кто твоя бабушка чувак? / C'est quoi cette mamie?!
Год выпуска: 2019
Страна: Франция, Бельгия / Bonne Pioche, TF1 Studio, M6 Films See more
Жанр: комедия
Продолжительность: 01:39:17
Перевод: Профессиональный многоголосый закадровый (iTunes)

Режиссер: Габриэль Жюльен-Лаферье

rating

В ролях: Шанталь Ладезу, Жюли Гайе, Тьерри Нёвик, Жюли Депардье, Люсьен Жан-Батист, Клаудия Тагбо, Филипп Катрин, Арие Эльмалех, Нино Киртадзе, Садио Диалло

Описание: Аврора наслаждается богатой жизнью в своих апартаментах на Лазурном Берегу во Франции. Вечеринки, друзья, путешествия, и самое важное - свое расписание дня. В один день дочери отправляют погостить к ней семь внуков от 6-ти до 18 лет.

Качество: WEB-DLRip
Формат: AVI
Видео кодек: DivX
Аудио кодек: MP3
Видео: 640x272 (2.35:1), 24.000 fps, DivX Codec 4.x ~860 kbps avg, 0.21 bit/pixel
Аудио: 48 kHz, MPEG Layer 3, 2 ch, ~128.00 kbps avg
скриншот   скриншот   скриншот   скриншот   скриншот   скриншот   скриншот   скриншот  


Общее
Полное имя : F:\ФИЛЬМЫ\Кто твоя бабушка, чувак.2019.WEB-DLRip.avi
Формат : AVI
Формат/Информация : Audio Video Interleave
Размер файла : 709 Мбайт
Продолжительность : 1 ч. 39 м.
Общий поток : 998 Кбит/сек
Программа кодирования : VirtualDubMod 1.5.10.3 | www.virtualdub-fr.org || (build 2550/release)
Библиотека кодирования : VirtualDubMod build 2550/release

Видео
Идентификатор : 0
Формат : MPEG-4 Visual
Профиль формата : Advanced Simple@L5
Настройки формата : BVOP3 / GMC3 / QPel
Параметр BVOP формата : 3
Параметр QPel формата : Да
Параметр GMC формата : 3 точки перехода
Параметр матрицы формата : Default (MPEG)
Идентификатор кодека : DIVX
Идентификатор кодека/Информация : Project Mayo
Идентификатор кодека/Подсказка : DivX 4
Продолжительность : 1 ч. 39 м.
Битрейт : 861 Кбит/сек
Ширина : 640 пикселей
Высота : 272 пикселя
Соотношение сторон : 2,35:1
Частота кадров : 24,000 кадра/сек
Цветовое пространство : YUV
Субдискретизация насыщенности : 4:2:0
Битовая глубина : 8 бит
Тип развёртки : Прогрессивная
Метод сжатия : С потерями
Бит/(Пиксели*Кадры) : 0.206
Размер потока : 611 Мбайт (86%)
Библиотека кодирования : XviD 1.2.1 (UTC 2008-12-04)

Аудио
Идентификатор : 1
Формат : MPEG Audio
Версия формата : Version 1
Профиль формата : Layer 3
Настройки формата : Joint stereo / MS Stereo
Идентификатор кодека : 55
Идентификатор кодека/Подсказка : MP3
Продолжительность : 1 ч. 39 м.
Вид битрейта : Постоянный
Битрейт : 128 Кбит/сек
Каналы : 2 канала
Частота : 48,0 КГц
Частота кадров : 41,667 кадра/сек (1152 SPF)
Метод сжатия : С потерями
Размер потока : 90,9 Мбайт (13%)
Выравнивание : Соединение по промежуткам
Продолжительность промежутка : 42 мс. (1,00 видеокадр)
Время предзагрузки промежутка : 504 мс.
Библиотека кодирования : LAME3.99r
Настройки программы : -m j -V 4 -q 2 -lowpass 17 -b 128

pb.wtf



Скачать Кто твоя бабушка, чувак? через торрент http://pic1.kartinco.top/images/12/j1elc.jpg Скачать фильм Кто твоя бабушка, чувак? через торрент бесплантно в хорошем качестве Описание: Аврора наслаждается богатой жизнью в своих апартаментах на Лазурном Берегу во Франции. Вечеринки, друзья, путешествия, и самое ... 10 10 4
Торрент: Зарегистрирован [2019-12-12 18:36] · скачан: 57 раз
Статус: √ проверено
Размер: 709 MB
Как cкачать? Как скачать Кто твоя бабушка, чувак? через торрент | qTorrent

28-11-2019 20:33  

Отключить всю рекламу на сайте

30-12-2019 08:29 Кто твоя бабушка, чувак? Скачать торрент  

Топик был перенесен из форума Фильмы 2019 [DVDrip, WEB-DLRip, HDrip] (DUB, MVO) в форум Для поглощённых раздач

Причина переноса: Кто твоя бабушка, чувак? / C'est quoi cette mamie?!
bober100pb.wtf



    Дорогой пользователь! Огромная просьба, поблагодарите релизера, оцените раздачу и оставьте свои комментарий, если Вы скачали Кто твоя бабушка, чувак? через торрент бесплатно! Внесите свою лепту в развитие PiratBit!
    Комментировать посты могут только пользователи прошедшие не сложную регистрацию
    Показать сообщения:    

    Кто твоя бабушка, чувак? через торрент
    Скачать бесплатно Кто твоя бабушка, чувак?
    Кто твоя бабушка, чувак? скачать торрент
    Кто твоя бабушка, чувак? смотреть онлайн
    Cкачать фильм Кто твоя бабушка, чувак? бесплатно
    Кто твоя бабушка, чувак? скачать торрент в хорошем качестве
    Кто твоя бабушка, чувак? смотреть онлайн бесплатно в хорошем качестве


    Вы не можете начинать темы
    Вы не можете отвечать на сообщения
    Вы не можете редактировать свои сообщения
    Вы не можете удалять свои сообщения
    Вы не можете голосовать в опросах
    Вы не можете прикреплять файлы к сообщениям
    Вы можете скачивать файлы