Ссылка на приватное зеркало нашего сайта всего за 1$. Внимание количество ограничено!!!

2 сезон

iTunes

1 сезон

1

2 сезон

2 сезон

iTunes

1 сезон

RePack

30

Ultimate

ВАЖНО

ИГРА 18+

pack

RePack

MK11
pack

Забери бонус

RePack

jed

!!Акция!!

Alien_Rage

RePack

fifa19

RePack

Assassins Creed: Odyssey

RePack

NEED FOR SPEED™ PAYBACK

4 сезон

9 сезон

Бесстыжие 9 сезон

Все сериалы

все сериалы на PB.wtf

RePack

FAR CRY 5
  

Робо (Сарик Андреасян) [2019, семейный, фантастика, драма, WEB-DLRip-AVC] [iTunes] - ExKinoRay pb.wtf

Робо через торрент pb.wtf

Раздают: 3 [ 0 KB/s ]
Размер: 1.28 GB | Добавлен: 11 мес. назад | Торрент скачан:419 раз
Скачать  

13-12-2019 04:56 Робо Скачать торрент  

Информация о фильме
Название: Робо
Год выпуска: 2019
Жанр: Семейный, фантастика, драма
Режиссёр: Сарик Андреасян
В ролях: Даниил Муравьёв-Изотов, Владимир Вдовиченков, Мария Миронова, Константин Лавроненко, Грант Тохатян, Кристина Орса, Елизавета Моряк, Сергей Безруков, Елена Борщева, Клим Бердинский

Описание: 12-летний Митя Привалов мечтает рисовать комиксы о супергероях. Но родители мальчика, инженеры-робототехники, хотят, чтобы он пошел по их стопам. Понимание и поддержку Митя находит там, где не ждал: у созданного родителями робота-спасателя А-112 или просто Робо. Их ждут невероятные приключения, в ходе которых Митя научит нового друга верить в себя и свои мечты, а Робо станет для мальчика примером мужества и ответственности.

rating

Страна: Россия
Студия: Кинокомпания «Большое кино»
Продолжительность: 01:27:48
Перевод: Не требуется

Формат: MKV
Качество: WEB-DLRip-AVC
Видео: MPEG-4 AVC, 1024x428 (2.40:1), 24.000 fps, 1708 Kbps, 0.162 bit/pixel
Аудио #01: 48 kHz, AC3, 5.1, 384 Kbps | RUS |
General
Unique ID : 209711514206847915484076958119320733979 (0x9DC4F7EEEB736CA691488B4882A1C91B)
Complete name : D:\Robo.2019.WEB-DLRip.AVC.ExKinoRay.mkv
Format : Matroska
Format version : Version 2
File size : 1.28 GiB
Duration : 1 h 27 min
Overall bit rate : 2 092 kb/s
Movie name : Robo 2019 from ExKinoRay
Encoded date : UTC 2019-12-13 03:53:00
Writing application : mkvmerge v5.6.0 ('Kenya Kane') built on May 27 2012 16:44:04
Writing library : libebml v1.2.3 + libmatroska v1.3.0

Video
ID : 1
Format : AVC
Format/Info : Advanced Video Codec
Format profile : High@L4.1
Format settings, CABAC : Yes
Format settings, ReFrames : 11 frames
Codec ID : V_MPEG4/ISO/AVC
Duration : 1 h 27 min
Bit rate : 1 708 kb/s
Width : 1 024 pixels
Height : 428 pixels
Display aspect ratio : 2.40:1
Frame rate mode : Constant
Frame rate : 24.000 FPS
Color space : YUV
Chroma subsampling : 4:2:0
Bit depth : 8 bits
Scan type : Progressive
Bits/(Pixel*Frame) : 0.162
Stream size : 1.02 GiB (80%)
Title : Enigma
Writing library : x264 core 152 r2851 ba24899
Encoding settings : cabac=1 / ref=11 / deblock=1:-2:-2 / analyse=0x3:0x113 / me=umh / subme=11 / psy=1 / psy_rd=1.05:0.08 / mixed_ref=1 / me_range=32 / chroma_me=1 / trellis=2 / 8x8dct=1 / cqm=0 / deadzone=21,11 / fast_pskip=0 / chroma_qp_offset=-3 / threads=12 / lookahead_threads=3 / sliced_threads=0 / nr=0 / decimate=0 / interlaced=0 / bluray_compat=0 / constrained_intra=0 / bframes=10 / b_pyramid=2 / b_adapt=2 / b_bias=0 / direct=3 / weightb=1 / open_gop=0 / weightp=2 / keyint=240 / keyint_min=24 / scenecut=40 / intra_refresh=0 / rc=2pass / mbtree=0 / bitrate=1708 / ratetol=1.0 / qcomp=0.60 / qpmin=0 / qpmax=51 / qpstep=4 / cplxblur=20.0 / qblur=0.5 / ip_ratio=1.40 / pb_ratio=1.30 / aq=1:1.00
Language : English
Default : Yes
Forced : No
Color range : Limited
Color primaries : BT.709
Transfer characteristics : BT.709
Matrix coefficients : BT.709

Audio
ID : 2
Format : AC-3
Format/Info : Audio Coding 3
Mode extension : CM (complete main)
Format settings, Endianness : Big
Codec ID : A_AC3
Duration : 1 h 27 min
Bit rate mode : Constant
Bit rate : 384 kb/s
Channel(s) : 6 channels
Channel positions : Front: L C R, Side: L R, LFE
Sampling rate : 48.0 kHz
Frame rate : 31.250 FPS (1536 spf)
Compression mode : Lossy
Stream size : 241 MiB (18%)
Language : Russian
Default : Yes
Forced : No


Релиз от:

Автор релиза: pb.wtf



Скачать Робо через торрент https://i3.imageban.ru/out/2019/12/12/7ad6c6b840c8aee716c1a9657e2ecafe.png Скачать фильм Робо через торрент бесплантно в хорошем качестве Описание: 12-летний Митя Привалов мечтает рисовать комиксы о супергероях. Но родители мальчика, инженеры-робототехники, хотят, чтобы он ... 10 10 10
Info! Золотая раздача, скачанное не засчитывается.
Торрент: Зарегистрирован [2019-12-13 04:56] · скачан: 419 раз
Статус: √ проверено
Размер: 1.28 GB
Как cкачать? Как скачать Робо через торрент | qTorrent

% Раздел Тема Автор DL S | L
Фильмы 2017 [DVDrip, WEB-DLRip, HDrip] (DUB, MVO) [ 1.48 GB ] Бюро человечества / The Humanity Bureau [2017 BDRip-AVC] MVO - ExKinoRay Enigma2010 Скачать
1 | 0
Иностранные мультфильмы [ 1.66 GB ] Семья Уиллоби / The Willoughbys [2020 Мультфильм WEB-DLRip-AVC] DUB [Невафильм] - ExKinoRay Mr. Grab Скачать
3 | 0
Фильмы до 2000 г. [ 2.95 GB ] Норт / North [1994 BDRip-AVC ] от ExKinoRay dumbia Скачать
1 | 0
Фильмы 2018 [DVDrip, WEB-DLRip, HDrip] (DUB, MVO) [ 1.45 GB ] Мэри Поппинс возвращается / Mary Poppins Returns [2018 мюзикл BDRip-AVC] DUB [] - ExKinoRay Enigma2010 Скачать
9 | 0
Фильмы 2018 [DVDrip, WEB-DLRip, HDrip] (DUB, MVO) [ 1.45 GB ] За бортом / Overboard [2018 BDRip-AVC] - [] - ExKinoRay Enigma2010 Скачать
1 | 0
T Фильмы 2018 [DVDrip, WEB-DLRip, HDrip] (DUB, MVO) [ 1.45 GB ] Мэри Поппинс возвращается / Mary Poppins Returns [2018 мюзикл BDRip-AVC] MVO [HDRezka Studio] - ExKinoRay Enigma2010 Скачать
1 | 0
Фильмы 2018 [DVDrip, WEB-DLRip, HDrip] (DUB, MVO) [ 1.72 GB ] Дыши во мгле / Dans la brume [2018 BDRip-AVC] - ExKinoRay Enigma2010 Скачать
1 | 0

28-11-2019 20:33  

Отключить всю рекламу на сайте

    Дорогой пользователь! Огромная просьба, поблагодарите релизера, оцените раздачу и оставьте свои комментарий, если Вы скачали Робо через торрент бесплатно! Внесите свою лепту в развитие PiratBit!
    Комментировать посты могут только пользователи прошедшие не сложную регистрацию
    Показать сообщения:    

    Робо через торрент
    Скачать бесплатно Робо
    Робо скачать торрент
    Робо смотреть онлайн
    Cкачать фильм Робо бесплатно
    Робо скачать торрент в хорошем качестве
    Робо смотреть онлайн бесплатно в хорошем качестве


    Вы не можете начинать темы
    Вы не можете отвечать на сообщения
    Вы не можете редактировать свои сообщения
    Вы не можете удалять свои сообщения
    Вы не можете голосовать в опросах
    Вы не можете прикреплять файлы к сообщениям
    Вы можете скачивать файлы