Достать ножи: Стеклянная луковица

MVO

Добыча

Дубляж

Уэнсдэй

1 сезон

Тор

Дубляж

13 клиническая

1 сезон

Жестокая ночь

MVO

Одни из нас

1 сезон

Deluxe

pack

Рекомендуем

30

Пиратка

ВАЖНО

ВАЖНО

Ghostwire

Пиратка

jed

RePack

nioh2

RePack

RDR2

RePack

NEED FOR SPEED™ PAYBACK

RePack

скачать торрент

Кинопоиск HD

Острые козырьки 6 сезон

6 сезон

FAR CRY 6

RePack

скачать торрент

Лицензия

скачать торрент

MVO

1

1 сезон

скачать торрент

1 сезон

скачать торрент

Лицензия

  

Шестеро вне закона / 6 Underground (Майкл Бэй / Michael Bay) [2019, боевик, триллер, WEBRip 720p] [Дубляж] (Пифагор)

Шестеро вне закона через торрент pb.wtf

Раздают: 1 [ 0 KB/s ]
Размер: 5.06 GB | Добавлен: 3 года 1 мес. назад | Торрент скачан:1396 раз
Смотреть онлайн | Скачать | Поддержите нас   

13-12-2019 10:38 Шестеро вне закона Скачать торрент  

Шестеро вне закона / 6 Underground

Страна: США
Студия: Bay Films, Skydance Productions
Жанр: боевик, триллер
Год выпуска: 2019
Продолжительность: 02:07:00
Перевод: Профессиональный (дублированный) Пифагор

Субтитры: русские (Full, Forced), английские
Режиссер: Майкл Бэй / Michael Bay

В ролях: Райан Рейнольдс, Адриа Архона, Мелани Лоран, Бен Харди, Дэйв Франко, Себастьян Роше, Ситара Аттайе, Кори Хоукинс, Мануэль Рульфо, Джеймс Мюррэй
Описание: Шесть миллиардеров фальсифицируют собственные смерти и создают отряд мстителей, чтобы самостоятельно вершить правосудие.
rating
Сэмпл
Бюджет: $150 000 000
Тип релиза: WEBRip 720p
Контейнер: MKV
Видео: AVC, 1280x720 (16:9), 23.976 fps, ~4 000 Kbps
Аудио 1: E-AC3, 48,0 kHz, 6 ch, 640 kbps | Netflix
Аудио 2: AC3, 48,0 kHz, 6 ch, 448 kbps | Netflix
Аудио 3: E-AC3+Atmos, 48,0 kHz, 6 ch, 768 kbps | English
Формат субтитров: softsub (SRT)
Общее
Уникальный идентификатор : 254437032480739965725011570633781356081 (0xBF6ACA3C3B691562916A8C7C1EB12631)
Полное имя : G:Torrent26UndergroundWEBRip720p.mkv
Формат : Matroska
Версия формата : Version 4 / Version 2
Размер файла : 5,06 Гбайт
Продолжительность : 2 ч. 8 м.
Режим общего битрейта : Переменный
Общий поток : 5621 Кбит/сек
Дата кодирования : UTC 2019-12-13 09:30:06
Программа кодирования : mkvmerge v9.5.0 ('Quiet Fire') 64bit
Библиотека кодирования : libebml v1.3.4 + libmatroska v1.4.5

Видео
Идентификатор : 1
Формат : AVC
Формат/Информация : Advanced Video Codec
Профиль формата : [email protected]
Настройки формата : CABAC / 3 Ref Frames
Параметр CABAC формата : Да
Параметр RefFrames формата : 3 кадра
Идентификатор кодека : V_MPEG4/ISO/AVC
Продолжительность : 2 ч. 8 м.
Вид битрейта : Переменный
Битрейт : 3830 Кбит/сек
Максимальный битрейт : 5745 Кбит/сек
Ширина : 1280 пикселей
Высота : 720 пикселей
Соотношение сторон : 16:9
Режим частоты кадров : Постоянный
Частота кадров : 23,976 (24000/1001) кадра/сек
Цветовое пространство : YUV
Субдискретизация насыщенности : 4:2:0
Битовая глубина : 8 бит
Тип развёртки : Прогрессивная
Бит/(Пиксели*Кадры) : 0.173
Размер потока : 3,39 Гбайт (67%)
Библиотека кодирования : x264 core 148 r2715 7e75228
Настройки программы : cabac=1 / ref=3 / deblock=1:0:0 / analyse=0x1:0x111 / me=umh / subme=10 / psy=1 / psy_rd=1.00:0.00 / mixed_ref=1 / me_range=24 / chroma_me=1 / trellis=2 / 8x8dct=0 / cqm=0 / deadzone=21,11 / fast_pskip=1 / chroma_qp_offset=-2 / threads=6 / lookahead_threads=1 / sliced_threads=0 / nr=0 / decimate=1 / interlaced=0 / bluray_compat=0 / stitchable=1 / constrained_intra=0 / bframes=2 / b_pyramid=0 / b_adapt=2 / b_bias=0 / direct=3 / weightb=1 / open_gop=0 / weightp=2 / keyint=250 / keyint_min=23 / scenecut=0 / intra_refresh=0 / rc_lookahead=48 / rc=2pass / mbtree=1 / bitrate=3830 / ratetol=1.0 / qcomp=0.50 / qpmin=6 / qpmax=51 / qpstep=4 / cplxblur=20.0 / qblur=0.5 / vbv_maxrate=5745 / vbv_bufsize=7660 / nal_hrd=vbr / filler=0 / ip_ratio=1.40 / aq=1:1.00
Язык : English
Default : Да
Forced : Нет

Аудио #1
Идентификатор : 2
Формат : E-AC-3
Формат/Информация : Enhanced Audio Coding 3
Параметр Endianness формата : Big
Идентификатор кодека : A_EAC3
Продолжительность : 2 ч. 8 м.
Вид битрейта : Постоянный
Битрейт : 640 Кбит/сек
Каналы : 6 каналов
Расположение каналов : Front: L C R, Side: L R, LFE
Частота : 48,0 КГц
Частота кадров : 187,500 кадров/сек (256 SPF)
Метод сжатия : С потерями
Размер потока : 590 Мбайт (11%)
Заголовок : rus EAC
Язык : Russian
Default : Да
Forced : Нет

Аудио #2
Идентификатор : 3
Формат : AC-3
Формат/Информация : Audio Coding 3
Параметр Endianness формата : Big
Идентификатор кодека : A_AC3
Продолжительность : 2 ч. 8 м.
Вид битрейта : Постоянный
Битрейт : 448 Кбит/сек
Каналы : 6 каналов
Расположение каналов : Front: L C R, Side: L R, LFE
Частота : 48,0 КГц
Частота кадров : 31,250 кадров/сек (1536 SPF)
Битовая глубина : 16 бит
Метод сжатия : С потерями
Размер потока : 413 Мбайт (8%)
Заголовок : rus AC3
Язык : Russian
Default : Нет
Forced : Нет

Аудио #3
Идентификатор : 4
Формат : E-AC-3
Формат/Информация : Enhanced Audio Coding 3
Профиль формата : E-AC-3+Atmos / E-AC-3
Параметр Endianness формата : Big
Идентификатор кодека : A_EAC3
Продолжительность : 2 ч. 8 м.
Вид битрейта : Постоянный
Битрейт : 768 Кбит/сек
Каналы : 15 objects / 6 каналов
Расположение каналов : 15 objects / Front: L C R, Side: L R, LFE
Частота : 48,0 КГц
Частота кадров : 187,500 кадров/сек (256 SPF)
Метод сжатия : С потерями
Размер потока : 708 Мбайт (14%)
Заголовок : eng
Язык : English
Default : Нет
Forced : Нет

Текст #1
Идентификатор : 5
Формат : UTF-8
Идентификатор кодека : S_TEXT/UTF8
Идентификатор кодека/Информация : UTF-8 Plain Text
Продолжительность : 2 ч. 7 м.
Битрейт : 2 бит/сек
ElementCount : 68
Размер потока : 2,42 Кбайт (0%)
Заголовок : rusForced
Язык : Russian
Default : Да
Forced : Нет

Текст #2
Идентификатор : 6
Формат : UTF-8
Идентификатор кодека : S_TEXT/UTF8
Идентификатор кодека/Информация : UTF-8 Plain Text
Продолжительность : 2 ч. 7 м.
Битрейт : 85 бит/сек
ElementCount : 1644
Размер потока : 80,2 Кбайт (0%)
Заголовок : rusFull
Язык : Russian
Default : Нет
Forced : Нет

Текст #3
Идентификатор : 7
Формат : UTF-8
Идентификатор кодека : S_TEXT/UTF8
Идентификатор кодека/Информация : UTF-8 Plain Text
Продолжительность : 2 ч. 7 м.
Битрейт : 78 бит/сек
ElementCount : 2197
Размер потока : 73,0 Кбайт (0%)
Заголовок : engSDH
Язык : English
Default : Нет
Forced : Нет
скриншот  скриншот  скриншот  



Скачать Шестеро вне закона через торрент https://i111.fastpic.ru/big/2019/1213/8f/c916c32f8a1282d57e3a495e7f09d58f.jpg Скачать, смотреть онлайн Шестеро вне закона бесплантно в хорошем качестве Описание: Шесть миллиардеров фальсифицируют собственные смерти и создают отряд мстителей, чтобы самостоятельно вершить ... 8.8 10 31
Торрент: Зарегистрирован [2019-12-13 16:07] · скачан: 1 396 раз
Статус: √ проверено
Размер: 5.06 GB
Как cкачать? Как скачать Шестеро вне закона через торрент | UTorrent

% Раздел Тема Автор DL S | L
Фильмы 2019-2020 [DVDrip, WEB-DLRip, HDrip] (DUB, MVO) [ 1.47 GB ] Шестеро вне закона / 6 Underground | Пифагор | DLRip killermax2013 Скачать
2 | 0
Фильмы 2019-2020 [DVDrip, WEB-DLRip, HDrip] (DUB, MVO) [ 2.18 GB ] Шестеро вне закона / 6 Underground | Пифагор | DLRip killermax2013 Скачать
2 | 0

28-11-2019 20:33  


Отключить вcю реклaмy на сайте, в т.ч. и в плеере онлайн просмотра!

04-01-2020 03:12 Шестеро вне закона Скачать торрент  

Кто глянул отпишитесь, че там как



04-01-2020 07:58 Шестеро вне закона Скачать торрент  

allexx1981 писал(а):

Кто глянул отпишитесь, че там как

попкорн муви, посмотрел и забыл на второй день



    Дорогой пользователь! Огромная просьба, поблагодарите релизера, оцените раздачу и оставьте свои комментарий, если Вы скачали Шестеро вне закона через торрент бесплатно!!
    Комментировать посты могут только пользователи прошедшие не сложную регистрацию
    Показать сообщения:    


    Шестеро вне закона через торрент
    Скачать бесплатно Шестеро вне закона
    Шестеро вне закона скачать торрент
    Шестеро вне закона смотреть онлайн
    Cкачать фильм Шестеро вне закона бесплатно
    Шестеро вне закона скачать торрент в хорошем качестве
    Шестеро вне закона смотреть онлайн бесплатно в хорошем качестве
    Вы не можете начинать темы
    Вы не можете отвечать на сообщения
    Вы не можете редактировать свои сообщения
    Вы не можете удалять свои сообщения
    Вы не можете голосовать в опросах
    Вы не можете прикреплять файлы к сообщениям
    Вы можете скачивать файлы
    Шестеро вне закона / 6 Underground [2019, боевик, триллер, WEBRip 720p] [Дубляж] смотреть онлайн, скачать торрент picoco.icu