Ссылка на приватное зеркало всего за 1$. Внимание количество ограничено!!!

OK

1+1

iTunes

мы

OK

1

WEB-DLRip

Джокер

Пифагор

Ведьмак / The Witcher сериал

Лицензия

ПШазам

ОК

Оно 2

iTunes

30
pack

Вам бонус

ВАЖНО

!!Акция!!

Alien_RageХит недели

RePack

Resident Evil 21

ИГРА 18+

pack

RePack

jed

!!Акция!!

Alien_Rage

RePack

fifa19

RePack

Assassins Creed: Odyssey

RePack

NEED FOR SPEED™ PAYBACK

4 сезон

9 сезон

Бесстыжие 9 сезон

Все сериалы

все сериалы на PB.wtf

RePack

FAR CRY 5
  

Война токов / The Current War (Альфонсо Гомес-Рехон / Alfonso Gomez-Rejon) [2017, биография, история, драма, BDRip 1080p] [MVO] (Pazl Voice) pb.wtf

Война токов через торрент pb.wtf

Раздают: 18 [ 487 KB/s ] Качают: 1 [ 3 MB/s ]
Размер: 13.27 GB | Добавлен: 1 мес. 6 д. назад | Торрент скачан:300 раз
Скачать  

13-12-2019 19:39 Война токов Скачать торрент  

Война токов / The Current War
«Кто управляет энергией – тот контролирует будущее»

Год выхода: 2017
Страна: США
Жанр: биография, история, драма
Продолжительность: 01:47:54
Перевод: Профессиональный (многоголосый закадровый) Pazl Voice*
Субтитры: английские
Режиссер:
Альфонсо Гомес-Рехон / Alfonso Gomez-Rejon
В ролях:
Бенедикт Камбербэтч, Том Холланд, Майкл Шеннон, Николас Холт, Кэтрин Уотерстон, Мэттью Макфэдиен, Таппенс Мидлтон, Вуди Норман, Луис Эшборн Серкис, Дэмиен Молони, Саймон Кунц, Эми Марстон, Крэйг Конуэй, Саймон Маньонда, Стэнли Таунсенд, Том Свит, Колин Стинтон
О фильме:
Америка, 1880 год. Мир освещается огнём, механизмы приводятся в движение паром или приложением силы. Гениальный изобретатель Томас Эдисон совершил ряд прорывных открытий, среди которых постоянный ток и изобретение лампы накаливания. Пока он встречается с инвесторами, инженер Джордж Вестингауз, сколотивший состояние на патенте тормозов для поездов, видит больше преимуществ в использовании переменного тока. Кроме того, недальновидный бизнесмен Эдисон берёт на работу простым инженером эмигранта Николу Теслу, и не увидев в его идеях потенциала, вскоре теряет ценного сотрудника. Соревнование за электрификацию американских городов — война постоянного и переменного токов продолжается.

rating

Качество: BDRip 1080p
Формат: MKV

Видео: MPEG-4 AVC, 15.7 Mбит/с, 1920x800, 24.000 кадр/с
Аудио: 48 kHz, AC3 Dolby Digital, 3/2 (L,C,R,l,r) + LFE ch, ~384.00 kbps avg
Аудио: Английский (DTS, 6 ch, 1509 Кбит/с, 48.0 KHz)
* Озвучено при поддержке онлайн площадки Kinopub. Рип с английского блюрея, все надписи озвучены, включая заголовки газет
Источник: The.Current.War.2017.INTERNAL.1080p.BluRay.X264-AMIABLE
General
Unique ID : 195527871347383395742143971092525853006 (0x93194C59647E2F9A93FC9ECFE7A5A94E)
Complete name : The.Current.War.2017.BDRip.1080p.mkv
Format : Matroska
Format version : Version 4
File size : 13.3 GiB
Duration : 1 h 47 min
Overall bit rate : 17.6 Mb/s
Encoded date : UTC 2019-12-13 14:53:15
Writing application : mkvmerge v7.1.0 ('Good Love') 64bit built on Jul 27 2014 13:06:55
Writing library : libebml v1.3.0 + libmatroska v1.4.1

Video
ID : 1
Format : AVC
Format/Info : Advanced Video Codec
Format profile : High@L4.1
Format settings : CABAC / 5 Ref Frames
Format settings, CABAC : Yes
Format settings, Reference fra : 5 frames
Codec ID : V_MPEG4/ISO/AVC
Duration : 1 h 47 min
Bit rate : 15.7 Mb/s
Width : 1 920 pixels
Height : 800 pixels
Display aspect ratio : 2.40:1
Frame rate mode : Constant
Frame rate : 24.000 FPS
Color space : YUV
Chroma subsampling : 4:2:0
Bit depth : 8 bits
Scan type : Progressive
Bits/(Pixel*Frame) : 0.426
Stream size : 11.8 GiB (89%)
Writing library : x264 core 158 r2988 7817004
Encoding settings : cabac=1 / ref=5 / deblock=1:-3:-3 / analyse=0x3:0x133 / me=umh / subme=10 / psy=1 / psy_rd=1.00:0.00 / mixed_ref=1 / me_range=48 / chroma_me=1 / trellis=2 / 8x8dct=1 / cqm=0 / deadzone=21,11 / fast_pskip=0 / chroma_qp_offset=-2 / threads=25 / lookahead_threads=6 / sliced_threads=0 / nr=0 / decimate=0 / interlaced=0 / bluray_compat=0 / constrained_intra=0 / bframes=10 / b_pyramid=2 / b_adapt=2 / b_bias=0 / direct=3 / weightb=1 / open_gop=0 / weightp=2 / keyint=240 / keyint_min=24 / scenecut=40 / intra_refresh=0 / rc=crf / mbtree=0 / crf=16.6 / qcomp=0.65 / qpmin=0 / qpmax=69 / qpstep=4 / ip_ratio=1.30 / pb_ratio=1.20 / aq=3:0.70
Language : English
Default : Yes
Forced : No

Audio #1
ID : 2
Format : AC-3
Format/Info : Audio Coding 3
Commercial name : Dolby Digital
Codec ID : A_AC3
Duration : 1 h 47 min
Bit rate mode : Constant
Bit rate : 384 kb/s
Channel(s) : 6 channels
Channel layout : L R C LFE Ls Rs
Sampling rate : 48.0 kHz
Frame rate : 31.250 FPS (1536 SPF)
Compression mode : Lossy
Stream size : 296 MiB (2%)
Title : Pazl Voice*
Language : Russian
Service kind : Complete Main
Default : Yes
Forced : No

Audio #2
ID : 3
Format : DTS
Format/Info : Digital Theater Systems
Codec ID : A_DTS
Duration : 1 h 47 min
Bit rate mode : Constant
Bit rate : 1 509 kb/s
Channel(s) : 6 channels
Channel layout : C L R Ls Rs LFE
Sampling rate : 48.0 kHz
Frame rate : 93.750 FPS (512 SPF)
Bit depth : 24 bits
Compression mode : Lossy
Stream size : 1.14 GiB (9%)
Language : English
Default : No
Forced : No

Text #1
ID : 4
Format : UTF-8
Codec ID : S_TEXT/UTF8
Codec ID/Info : UTF-8 Plain Text
Duration : 1 h 37 min
Bit rate : 72 b/s
Count of elements : 1270
Stream size : 51.5 KiB (0%)
Language : English
Default : No
Forced : No

Text #2
ID : 5
Format : UTF-8
Codec ID : S_TEXT/UTF8
Codec ID/Info : UTF-8 Plain Text
Duration : 1 h 40 min
Bit rate : 73 b/s
Count of elements : 1356
Stream size : 54.6 KiB (0%)
Title : SDH
Language : English
Default : No
Forced : No

Menu
00:00:00.000 : :Chapter 01
00:08:25.250 : :Chapter 02
00:14:57.583 : :Chapter 03
00:24:11.417 : :Chapter 04
00:32:44.250 : :Chapter 05
00:43:11.833 : :Chapter 06
00:50:58.667 : :Chapter 07
01:02:35.417 : :Chapter 08
01:12:04.333 : :Chapter 09
01:19:09.458 : :Chapter 10
01:26:40.417 : :Chapter 11
01:33:08.250 : :Chapter 12

скриншот  скриншот  скриншот  
pb.wtf



Скачать Война токов через торрент https://c.radikal.ru/c28/1912/10/936461662198.jpg Скачать фильм Война токов через торрент бесплантно в хорошем качестве О фильме:Америка, 1880 год. Мир освещается огнём, механизмы приводятся в движение паром или приложением силы. Гениальный изобретатель Томас ... 10 10 3
Торрент: Зарегистрирован [2019-12-13 19:39] · скачан: 300 раз
Статус: √ проверено
Размер: 13.27 GB
Как cкачать? Как скачать Война токов через торрент | qTorrent

% Раздел Тема Автор DL S | L
T Фильмы [HD 720p, 1080p] (Хороший звук DUB, MVO) [ 4.66 GB ] Война токов / The Current War [2017 биография история BDRip 720p] MVO [Pazl Voice] bober100 Скачать
15 | 0
Фильмы (Blu-ray, BD-Remux, HDDVD) [ 24.17 GB ] Война токов / The Current War [2017 биография история BD Remux 1080p] MVO [Pazl Voice] bober100 Скачать
2 | 0
Фильмы 2017 [DVDrip, WEB-DLRip, HDrip] (DUB, MVO) [ 1.46 GB ] Война токов / The Current War [2017 биография история BDRip] [UK Transfer] [MVO] killermax2013 Скачать
28 | 0

28-11-2019 20:33  

Отключить всю рекламу на сайте

    Дорогой пользователь! Огромная просьба, поблагодарите релизера, оцените раздачу и оставьте свои комментарий, если Вы скачали Война токов через торрент бесплатно! Внесите свою лепту в развитие PiratBit!
    Комментировать посты могут только пользователи прошедшие не сложную регистрацию
    Показать сообщения:    

    Война токов через торрент
    Скачать бесплатно Война токов
    Война токов скачать торрент
    Война токов смотреть онлайн
    Cкачать фильм Война токов бесплатно
    Война токов скачать торрент в хорошем качестве
    Война токов смотреть онлайн бесплатно в хорошем качестве


    Вы не можете начинать темы
    Вы не можете отвечать на сообщения
    Вы не можете редактировать свои сообщения
    Вы не можете удалять свои сообщения
    Вы не можете голосовать в опросах
    Вы не можете прикреплять файлы к сообщениям
    Вы можете скачивать файлы