Ссылка на приватное зеркало всего за 1$. Внимание количество ограничено!!!

OK

1+1

iTunes

мы

OK

1

WEB-DLRip

Джокер

Пифагор

Ведьмак / The Witcher сериал

iTunes

ПШазам

ОК

Оно 2

iTunes

30
pack

Вам бонус

ВАЖНО

!!Акция!!

Alien_RageХит недели

RePack

Resident Evil 21

ИГРА 18+

pack

RePack

jed

RePack

fifa19

RePack

Assassins Creed: Odyssey

RePack

NEED FOR SPEED™ PAYBACK

4 сезон

9 сезон

Бесстыжие 9 сезон

Все сериалы

все сериалы на PB.wtf

RePack

FAR CRY 5
  

Шестеро вне закона / Призрачная шестерка / 6 Underground (Майкл Бэй) [2019, боевик, триллер, WEB-DLRip-AVC] DUB [Пифагор] pb.wtf

Шестеро вне закона через торрент pb.wtf

Раздают: 12 [ 8 KB/s ]
Размер: 2.68 GB | Добавлен: 1 мес. 13 д. назад | Торрент скачан:318 раз
Скачать  

14-12-2019 05:04 Шестеро вне закона Скачать торрент  

Шестеро вне закона / Призрачная шестерка / 6 Underground
Год выпуска: 2019
Страна: США
Студия: Bay Films, Skydance Media
Жанр: боевик, триллер
Продолжительность: 02:08:52
Перевод: Дублированный | Пифагор
Субтитры: отсутствуют

Режиссер: Майкл Бэй

rating

В ролях:

Райан Рейнольдс (One), Адриа Архона, Мелани Лоран (Two), Бен Харди, Дэйв Франко, Себастьян Роше, Ситара Аттайе (Turkmen Rebellion), Кори Хоукинс (Five), Мануэль Рульфо (Three), Джеймс Мюррэй (Caleb), Ryan Baumann (Grocery Store Kid), Элен Кардона (Opera Guest)
Описание: Огромные деньги дают большую Влacть, но не гарантируют свободы. Шесть миллиардеров решают инсценировать свою смерть, чтобы стать «невидимками» для этого мира и полностью развязать себе руки. Они исчезли из поля зрения властей, полиции и своих врагов. Группа под руководством лидера с позывным «Первый» начинает собственную вендетту против преступников. Они вершат правосудие в той форме, в какой они это представляют. У них есть бездна времени и неограниченные финансовые возможности. Командир под кодовым именем «Первый» и его секретный отряд для борьбы с криминалом отчаянно сражаются с несправедливостью и злом, используя для этого весь арсенал современных гаджетов. Ведь в мире еще так много страданий. Шесть миллиардеров с радостью стерли свое прошлое, чтобы начать новую, свободную жизнь. Любой из шести является лучшим в своем деле. Каждый член секретной подпольной организации в ходе первой же операции по нейтрализации могущественных преступников опьянен адреналином от ощущения, что балансировал на краю смерти. Но, перейдя на другую сторону закона и исчезнув с радаров, они наслаждаются ощущением бесконечной свободы и могущества.

Качество: WEB-DLRip-AVC
Формат: MKV

Видео: MPEG-4 AVC, 2200 Kбит/с, 1024x428
Аудио#1: Русский (АС3, 6 ch, 384 Кбит/с)
Аудио#2: английский (АС3, 6 ch, 384 Кбит/с)
скриншот  скриншот  скриншот  скриншот  

Общее
Уникальный идентификатор : 200507568908968869108944625574589562714 (0x96D85A6502D746AC48751C078678FF5A)
Полное имя : C:UsersAdminDesktopШестеро вне закона (2019) WEB-DLRip (AVC) (Лиц).mkv
Формат : Matroska
Версия формата : Version 4 / Version 2
Размер файла : 2,68 Гбайт
Продолжительность : 2 ч. 8 м.
Общий поток : 2973 Кбит/сек
Дата кодирования : UTC 2019-12-13T12:20:15Z
Программа кодирования : HandBrake 1.1.2 2018090500
Библиотека кодирования : Lavf57.7.2

Видео
Идентификатор : 1
Формат : AVC
Формат/Информация : Advanced Video Codec
Профиль формата : High@L4
Настройки формата : CABAC / 5 Ref Frames
Параметр CABAC формата : Да
Параметр RefFrames формата : 5 кадров
Идентификатор кодека : V_MPEG4/ISO/AVC
Продолжительность : 2 ч. 8 м.
Битрейт : 2200 Кбит/сек
Ширина : 1024 пикселя
Высота : 428 пикселей
Соотношение сторон : 2,40:1
Режим частоты кадров : Постоянный
Частота кадров : 23,976 (24000/1001) кадра/сек
Цветовое пространство : YUV
Субдискретизация насыщенности : 4:2:0
Битовая глубина : 8 бит
Тип развёртки : Прогрессивная
Бит/(Пиксели*Кадры) : 0.209
Размер потока : 1,93 Гбайт (72%)
Библиотека кодирования : x264 core 155 r2901 7d0ff22
Настройки программы : cabac=1 / ref=5 / deblock=1:0:0 / analyse=0x3:0x113 / me=hex / subme=8 / psy=1 / psy_rd=1.00:0.00 / mixed_ref=1 / me_range=16 / chroma_me=1 / trellis=2 / 8x8dct=1 / cqm=0 / deadzone=21,11 / fast_pskip=1 / chroma_qp_offset=-2 / threads=13 / lookahead_threads=2 / sliced_threads=0 / nr=0 / decimate=1 / interlaced=0 / bluray_compat=0 / constrained_intra=0 / bframes=3 / b_pyramid=2 / b_adapt=1 / b_bias=0 / direct=3 / weightb=1 / open_gop=0 / weightp=2 / keyint=240 / keyint_min=24 / scenecut=40 / intra_refresh=0 / rc_lookahead=50 / rc=2pass / mbtree=1 / bitrate=2200 / ratetol=1.0 / qcomp=0.60 / qpmin=0 / qpmax=69 / qpstep=4 / cplxblur=20.0 / qblur=0.5 / vbv_maxrate=25000 / vbv_bufsize=31250 / nal_hrd=none / filler=0 / ip_ratio=1.40 / aq=1:1.00
Default : Да
Forced : Нет
Цветовой диапазон : Limited
Основные цвета : BT.709
Характеристики трансфера : BT.709
Коэффициенты матрицы : BT.709

Аудио #1
Идентификатор : 2
Формат : AC-3
Формат/Информация : Audio Coding 3
Идентификатор кодека : A_AC3
Продолжительность : 2 ч. 8 м.
Вид битрейта : Постоянный
Битрейт : 384 Кбит/сек
Каналы : 6 каналов
Расположение каналов : Front: L C R, Side: L R, LFE
Частота : 48,0 КГц
Частота кадров : 31,250 кадров/сек (1536 SPF)
Битовая глубина : 16 бит
Метод сжатия : С потерями
Размер потока : 354 Мбайт (13%)
Заголовок : Surround
Язык : Russian
Default : Да
Forced : Нет

Аудио #2
Идентификатор : 3
Формат : AC-3
Формат/Информация : Audio Coding 3
Идентификатор кодека : A_AC3
Продолжительность : 2 ч. 8 м.
Вид битрейта : Постоянный
Битрейт : 384 Кбит/сек
Каналы : 6 каналов
Расположение каналов : Front: L C R, Side: L R, LFE
Частота : 48,0 КГц
Частота кадров : 31,250 кадров/сек (1536 SPF)
Битовая глубина : 16 бит
Метод сжатия : С потерями
Размер потока : 354 Мбайт (13%)
Заголовок : Surround
Язык : English
Default : Нет
Forced : Нет

pb.wtf



Скачать Шестеро вне закона через торрент https://a.radikal.ru/a24/1912/6f/39f28fb5dafc.png Скачать фильм Шестеро вне закона через торрент бесплантно в хорошем качестве Описание: Огромные деньги дают большую Влacть, но не гарантируют свободы. Шесть миллиардеров решают инсценировать свою смерть, чтобы стать ... 10 10 8
Info! Золотая раздача, скачанное не засчитывается.
Торрент: Зарегистрирован [2019-12-14 05:05] · скачан: 318 раз
Статус: √ проверено
Размер: 2.68 GB
Как cкачать? Как скачать Шестеро вне закона через торрент | qTorrent

% Раздел Тема Автор DL S | L
Фильмы 2019-2020 [DVDrip, WEB-DLRip, HDrip] (DUB, MVO) [ 1.46 GB ] Шестеро вне закона / Призрачная шестерка / 6 Underground [2019 WEB-DLRip] - [Пифагор] Twi7ter Скачать
501 | 33
Ultra HD (UHD: 2K, 4K, 8K) — видео сверхвысокой чёткости [ 14.77 GB ] Шестеро вне закона / Призрачная шестерка / 6 Underground [2019 UHD WEBRip 2160p] DUB [Пифагор] bober100 Скачать
41 | 1
Фильмы 2019-2020 [DVDrip, WEB-DLRip, HDrip] (DUB, MVO) [ 2.2 GB ] Шестеро вне закона / Призрачная шестерка / 6 Underground [2019 WEB-DLRip] - [Пифагор] Twi7ter Скачать
356 | 17
Фильмы 2019-2020 [DVDrip, WEB-DLRip, HDrip] (DUB, MVO) [ 2.54 GB ] Шестеро вне закона / Призрачная шестерка / 6 Underground [2019 WEB-DLRip-AVC] DUB [Пифагор] - ExKinoRay Enigma2010 Скачать
315 | 4
Фильмы 2019-2020 [DVDrip, WEB-DLRip, HDrip] (DUB, MVO) [ 744 MB ] Шестеро вне закона / Призрачная шестерка / 6 Underground [2019 WEB-DLRip] DUB [Пифагор] bober100 Скачать
6 | 0

28-11-2019 20:33  

Отключить всю рекламу на сайте

    Дорогой пользователь! Огромная просьба, поблагодарите релизера, оцените раздачу и оставьте свои комментарий, если Вы скачали Шестеро вне закона через торрент бесплатно! Внесите свою лепту в развитие PiratBit!
    Комментировать посты могут только пользователи прошедшие не сложную регистрацию
    Показать сообщения:    

    Шестеро вне закона через торрент
    Скачать бесплатно Шестеро вне закона
    Шестеро вне закона скачать торрент
    Шестеро вне закона смотреть онлайн
    Cкачать фильм Шестеро вне закона бесплатно
    Шестеро вне закона скачать торрент в хорошем качестве
    Шестеро вне закона смотреть онлайн бесплатно в хорошем качестве


    Вы не можете начинать темы
    Вы не можете отвечать на сообщения
    Вы не можете редактировать свои сообщения
    Вы не можете удалять свои сообщения
    Вы не можете голосовать в опросах
    Вы не можете прикреплять файлы к сообщениям
    Вы можете скачивать файлы