Ссылка на приватное зеркало всего за 1$. Внимание количество ограничено!!!

OK

1+1

iTunes

мы

OK

1

WEB-DLRip

Джокер

Пифагор

Ведьмак / The Witcher сериал

Лицензия

ПШазам

ОК

Оно 2

iTunes

30
pack

Вам бонус

ВАЖНО

!!Акция!!

Alien_RageХит недели

RePack

Resident Evil 21

ИГРА 18+

pack

RePack

jed

!!Акция!!

Alien_Rage

RePack

fifa19

RePack

Assassins Creed: Odyssey

RePack

NEED FOR SPEED™ PAYBACK

4 сезон

9 сезон

Бесстыжие 9 сезон

Все сериалы

все сериалы на PB.wtf

RePack

FAR CRY 5
  

Шестеро вне закона / Призрачная шестерка / 6 Underground (Майкл Бэй) [2019, боевик, триллер, WEB-DLRip-AVC] DUB [Пифагор] - ExKinoRay pb.wtf

Шестеро вне закона через торрент pb.wtf

Раздают: 279 [ 6 MB/s ] Качают: 13 [ 3 MB/s ]
Размер: 2.54 GB | Добавлен: 1 мес. 7 д. назад | Торрент скачан:1012 раз
Скачать  

14-12-2019 05:20 Шестеро вне закона Скачать торрент  

Название: Шестеро вне закона (Призрачная шестерка)
Оригинальное название: 6 Underground
Год выпуска: 2019
Жанр: Боевик, триллер
Режиссер: Майкл Бэй
В ролях: Райан Рейнольдс, Мелани Лоран, Мануэль Рульфо, Адриа Архона, Кори Хоукинс, Бен Харди, Дэйв Франко, Лайор Раз, Пейман Моаади, Петер Стормаре, Себастьян Роше

Описание: Огромные деньги дают большую Влacть, но не гарантируют свободы. Шесть миллиардеров решают инсценировать свою смерть, чтобы стать «невидимками» для этого мира и полностью развязать себе руки. Они исчезли из поля зрения властей, полиции и своих врагов. Группа под руководством лидера с позывным «Первый» начинает собственную вендетту против преступников. Они вершат правосудие в той форме, в какой они это представляют. У них есть бездна времени и неограниченные финансовые возможности. Командир под кодовым именем «Первый» и его секретный отряд для борьбы с криминалом отчаянно сражаются с несправедливостью и злом, используя для этого весь арсенал современных гаджетов. Ведь в мире еще так много страданий. Шесть миллиардеров с радостью стерли свое прошлое, чтобы начать новую, свободную жизнь. Любой из шести является лучшим в своем деле. Каждый член секретной подпольной организации в ходе первой же операции по нейтрализации могущественных преступников опьянен адреналином от ощущения, что балансировал на краю смерти. Но, перейдя на другую сторону закона и исчезнув с радаров, они наслаждаются ощущением бесконечной свободы и могущества.

rating


Страна: США
Студия: Bay Films, Skydance Media
Продолжительность: 02:08:52
Перевод: Профессиональный (дублированный) | Пифагор

Формат: MKV
Качество: WEB-DLRip-AVC
Видео: MPEG-4 AVC, 1024x428 (2.40:1), 23.976 fps, 2369 Kbps, 0.225 bit/pixel
Аудио : 48 kHz, AC3, 5.1, 448 Kbps | RUS |
Субтитры: Русские (Forced, Full)
General
Unique ID : 209405119132854492924826387733387039134 (0x9D89F57D6496509D98838EE05DB6519E)
Complete name : F:\6.Underground.2019.AVC.ExKinoRay.mkv
Format : Matroska
Format version : Version 2
File size : 2.54 GiB
Duration : 2 h 8 min
Overall bit rate : 2 818 kb/s
Movie name : 6 Underground (2019) from ExKinoRay
Encoded date : UTC 2019-12-14 04:42:47
Writing application : mkvmerge v5.6.0 ('Kenya Kane') built on May 27 2012 16:44:04
Writing library : libebml v1.2.3 + libmatroska v1.3.0

Video
ID : 1
Format : AVC
Format/Info : Advanced Video Codec
Format profile : High@L4.1
Format settings, CABAC : Yes
Format settings, ReFrames : 11 frames
Codec ID : V_MPEG4/ISO/AVC
Duration : 2 h 8 min
Bit rate : 2 369 kb/s
Width : 1 024 pixels
Height : 428 pixels
Display aspect ratio : 2.40:1
Frame rate mode : Constant
Frame rate : 23.976 (23976/1000) FPS
Color space : YUV
Chroma subsampling : 4:2:0
Bit depth : 8 bits
Scan type : Progressive
Bits/(Pixel*Frame) : 0.225
Stream size : 2.08 GiB (82%)
Title : Enigma
Writing library : x264 core 152 r2851 ba24899
Encoding settings : cabac=1 / ref=11 / deblock=1:-2:-2 / analyse=0x3:0x113 / me=umh / subme=11 / psy=1 / psy_rd=1.05:0.10 / mixed_ref=1 / me_range=32 / chroma_me=1 / trellis=2 / 8x8dct=1 / cqm=0 / deadzone=21,11 / fast_pskip=0 / chroma_qp_offset=-3 / threads=12 / lookahead_threads=3 / sliced_threads=0 / nr=0 / decimate=0 / interlaced=0 / bluray_compat=0 / constrained_intra=0 / bframes=10 / b_pyramid=2 / b_adapt=2 / b_bias=0 / direct=3 / weightb=1 / open_gop=0 / weightp=2 / keyint=240 / keyint_min=23 / scenecut=40 / intra_refresh=0 / rc=2pass / mbtree=0 / bitrate=2369 / ratetol=1.0 / qcomp=0.60 / qpmin=0 / qpmax=51 / qpstep=4 / cplxblur=20.0 / qblur=0.5 / ip_ratio=1.40 / pb_ratio=1.30 / aq=1:1.00
Language : English
Default : Yes
Forced : No
Color range : Limited
Color primaries : BT.709
Transfer characteristics : BT.709
Matrix coefficients : BT.709

Audio
ID : 2
Format : AC-3
Format/Info : Audio Coding 3
Mode extension : CM (complete main)
Format settings, Endianness : Big
Codec ID : A_AC3
Duration : 2 h 8 min
Bit rate mode : Constant
Bit rate : 448 kb/s
Channel(s) : 6 channels
Channel positions : Front: L C R, Side: L R, LFE
Sampling rate : 48.0 kHz
Frame rate : 31.250 FPS (1536 spf)
Compression mode : Lossy
Stream size : 413 MiB (16%)
Title : Dub
Language : Russian
Default : Yes
Forced : No

Text #1
ID : 3
Format : UTF-8
Codec ID : S_TEXT/UTF8
Codec ID/Info : UTF-8 Plain Text
Title : Forced
Language : Russian
Default : Yes
Forced : No

Text #2
ID : 4
Format : UTF-8
Codec ID : S_TEXT/UTF8
Codec ID/Info : UTF-8 Plain Text
Title : Full
Language : Russian
Default : No
Forced : No


Релиз от:

Автор релиза: pb.wtf



Скачать Шестеро вне закона через торрент https://a.radikal.ru/a43/1912/3c/a670b5411db2.png Скачать фильм Шестеро вне закона через торрент бесплантно в хорошем качестве Описание: Огромные деньги дают большую Влacть, но не гарантируют свободы. Шесть миллиардеров решают инсценировать свою смерть, чтобы ... 9.6 10 24
Info! Золотая раздача, скачанное не засчитывается.
Торрент: Зарегистрирован [2019-12-14 05:20] · скачан: 1 012 раз
Статус: √ проверено
Размер: 2.54 GB
Как cкачать? Как скачать Шестеро вне закона через торрент | qTorrent

28-11-2019 20:33  

Отключить всю рекламу на сайте

14-12-2019 11:31 Шестеро вне закона Скачать торрент  

Редкостное говнецо. Уровень пафоса зашкаливает, уровень логики пробивает дно. Типичный Майкл Бей, но даже в Трансформерах и то было больше смысла. Откуда 9-ки у зарубежных критиков я хз, видимо это показывает их уровень интеллекта или их продажность.pb.wtf



14-12-2019 19:29 Шестеро вне закона Скачать торрент  

много киноляпов в фильме.pb.wtf



14-12-2019 20:25 Шестеро вне закона Скачать торрент  

Отличный и зрелищный экшн,один из самых лучших в этом году, просто тупо забить на глупый сюжет и получите удовольствие.pb.wtf



15-12-2019 00:52 Шестеро вне закона Скачать торрент  

Такое говно еще надо умудриться снять. Осилил минут 20...pb.wtf



15-12-2019 18:52 Шестеро вне закона Скачать торрент  

Денвир78 писал(а):

Отличный и зрелищный экшн,один из самых лучших в этом году, просто тупо забить на глупый сюжет и получите удовольствие.

Смотреть фильм и забить на сюжет? Ну да, ну да. Просто фильм собранный на коленке. Ляпов просто капец, как и бреда. Когда решили выехать на эффектах, но фильм получился полным г.pb.wtf



17-12-2019 15:22 Шестеро вне закона Скачать торрент  

Такого говна я давно уже не смотрел.
Зря потраченное время.pb.wtf



28-12-2019 06:19 Шестеро вне закона Скачать торрент  

Убожество Напоминает индийское кино,от экшн сцен глаза вытекают pb.wtf



31-12-2019 07:15 Шестеро вне закона Скачать торрент  

ПЧЕЛЫ ПРОТИВ МЕДА)))))))))))pb.wtf



    Дорогой пользователь! Огромная просьба, поблагодарите релизера, оцените раздачу и оставьте свои комментарий, если Вы скачали Шестеро вне закона через торрент бесплатно! Внесите свою лепту в развитие PiratBit!
    Комментировать посты могут только пользователи прошедшие не сложную регистрацию
    Показать сообщения:    

    Шестеро вне закона через торрент
    Скачать бесплатно Шестеро вне закона
    Шестеро вне закона скачать торрент
    Шестеро вне закона смотреть онлайн
    Cкачать фильм Шестеро вне закона бесплатно
    Шестеро вне закона скачать торрент в хорошем качестве
    Шестеро вне закона смотреть онлайн бесплатно в хорошем качестве


    Вы не можете начинать темы
    Вы не можете отвечать на сообщения
    Вы не можете редактировать свои сообщения
    Вы не можете удалять свои сообщения
    Вы не можете голосовать в опросах
    Вы не можете прикреплять файлы к сообщениям
    Вы можете скачивать файлы