Ссылка на приватное зеркало всего за 1$. Внимание количество ограничено!!!

OK

1+1

iTunes

мы

OK

1

WEB-DLRip

Джокер

Пифагор

Ведьмак / The Witcher сериал

Лицензия

ПШазам

ОК

Оно 2

iTunes

30
pack

Вам бонус

ВАЖНО

!!Акция!!

Alien_RageХит недели

RePack

Resident Evil 21

ИГРА 18+

pack

RePack

jed

!!Акция!!

Alien_Rage

RePack

fifa19

RePack

Assassins Creed: Odyssey

RePack

NEED FOR SPEED™ PAYBACK

4 сезон

9 сезон

Бесстыжие 9 сезон

Все сериалы

все сериалы на PB.wtf

RePack

FAR CRY 5
  

Леденящие душу приключения Сабрины / Chilling Adventures of Sabrina / Сезон: 1 / Серии 1-11 из 11 (Роб Шейденгланц, Мэгги Кили, Ли Толанд Кригер) [2018, Ужасы, фэнтези, триллер, драма, детектив, WEBRip1080p] [MVO] (HDRezka Studio) pb.wtf

Леденящие душу приключения Сабрины через торрент pb.wtf

Размер: 18.62 GB | Добавлен: 1 мес. 6 д. назад | Торрент скачан:5 раз
Скачать  

14-12-2019 07:36 Леденящие душу приключения Сабрины Скачать торрент  

Леденящие душу приключения Сабрины / Chilling Adventures of Sabrina

Год выпуска: 2018
Страна: США
Жанр: Ужасы, фэнтези, триллер, драма, детектив
Продолжительность: ~01:00:00
Перевод: Профессиональный (многоголосый закадровый) | *HDRezka Studio*
Режиссёр: Роб Шейденгланц, Мэгги Кили, Ли Толанд Кригер
В ролях: Кирнан Шипка, Росс Линч, Люси Дэвис, Мишель Гомес, Жасмин Сабино, Тати Габриэль, Ричард Койл, Миранда Отто, Бронсон Пиншо
Описание: Обновленная версия приключений маленькой ведьмы Сабрины в виде тёмной истории взросления с элементами хоррора, оккультизма и ведьмовства. Сабрина пытается найти себя истинную между своими натурами смертной и ведьмы, при этом ей придётся противостоять злым силам, которые угрожают ей, её семье и всему миру людей.

rating

Качество: WEBRip 1080p
Формат: MKV
Видео: MPEG-4 AVC, ~ 5 200 Kбит/с, 1920x1080
Аудио: 48 kHz, AC3, 2 ch, ~192.00 kbps avg | Rus
Субтитры: Русские (форсированные)


General
Unique ID : 243467238135920699984482740302499798282 (0xB72A159DE188BE91AC791CE01083DD0A)
Complete name : E:\Chilling.Adventures.of.Sabrina.2018.S01.1080p\Chilling.Adventures.of.Sabrina.S01E01.WEBRip.1080p.rus.2.0.HDREZKA.STUDIO.mkv
Format : Matroska
Format version : Version 4 / Version 2
File size : 2.36 GiB
Duration : 1 h 1 min
Overall bit rate mode : Variable
Overall bit rate : 5 464 kb/s
Encoded date : UTC 2018-11-08 22:02:35
Writing application : mkvmerge v25.0.0 ('Prog Noir') 64-bit
Writing library : libebml v1.3.6 + libmatroska v1.4.9

Video
ID : 1
Format : AVC
Format/Info : Advanced Video Codec
Format profile : High@L4.1
Format settings : CABAC / 1 Ref Frames
Format settings, CABAC : Yes
Format settings, RefFrames : 1 frame
Codec ID : V_MPEG4/ISO/AVC
Duration : 1 h 1 min
Bit rate mode : Variable
Bit rate : 5 164 kb/s
Maximum bit rate : 2 000 kb/s
Width : 1 920 pixels
Height : 1 080 pixels
Display aspect ratio : 16:9
Frame rate mode : Constant
Frame rate : 23.976 (24000/1001) FPS
Color space : YUV
Chroma subsampling : 4:2:0
Bit depth : 8 bits
Scan type : Progressive
Bits/(Pixel*Frame) : 0.104
Stream size : 2.23 GiB (94%)
Default : Yes
Forced : No

Audio
ID : 2
Format : AC-3
Format/Info : Audio Coding 3
Format settings, Endianness : Big
Codec ID : A_AC3
Duration : 1 h 1 min
Bit rate mode : Constant
Bit rate : 192 kb/s
Channel(s) : 2 channels
Channel positions : Front: L R
Sampling rate : 48.0 kHz
Frame rate : 31.250 FPS (1536 SPF)
Bit depth : 16 bits
Compression mode : Lossy
Stream size : 85.0 MiB (4%)
Language : Russian
Service kind : Complete Main
Default : Yes
Forced : No
скриншот  скриншот  скриншот  
pb.wtf



Скачать Леденящие душу приключения Сабрины через торрент http://i96.fastpic.ru/big/2018/1029/fd/aa6bc6b7a5610f867538a16388c603fd.jpg Скачать фильм Леденящие душу приключения Сабрины через торрент бесплантно в хорошем качестве Описание: Обновленная приключений маленькой ведьмы Сабрины в виде тёмной истории взросления с элементами хоррора, оккультизма и ... 5.5 10 4
Торрент: Зарегистрирован [2019-12-14 07:36] · скачан: 5 раз
Статус: √ проверено
Размер: 18.62 GB
Как cкачать? Как скачать Леденящие душу приключения Сабрины через торрент | qTorrent

% Раздел Тема Автор DL S | L
Зарубежные сериалы [ 12.29 GB ] Леденящие душу Сабрины / Chilling Adventures of Sabrina / Сезон: 1 / Серии 1-11 из 11 [2018 WEB-DLRip] [MVO] killermax2013 Скачать
1 | 0

28-11-2019 20:33  

Отключить всю рекламу на сайте


    Дорогой пользователь! Огромная просьба, поблагодарите релизера, оцените раздачу и оставьте свои комментарий, если Вы скачали Леденящие душу приключения Сабрины через торрент бесплатно! Внесите свою лепту в развитие PiratBit!
    Комментировать посты могут только пользователи прошедшие не сложную регистрацию
    Показать сообщения:    

    Леденящие душу приключения Сабрины через торрент
    Скачать бесплатно Леденящие душу приключения Сабрины
    Леденящие душу приключения Сабрины скачать торрент
    Леденящие душу приключения Сабрины смотреть онлайн
    Cкачать фильм Леденящие душу приключения Сабрины бесплатно
    Леденящие душу приключения Сабрины скачать торрент в хорошем качестве
    Леденящие душу приключения Сабрины смотреть онлайн бесплатно в хорошем качестве


    Вы не можете начинать темы
    Вы не можете отвечать на сообщения
    Вы не можете редактировать свои сообщения
    Вы не можете удалять свои сообщения
    Вы не можете голосовать в опросах
    Вы не можете прикреплять файлы к сообщениям
    Вы можете скачивать файлы