Ссылка на приватное зеркало всего за 1$. Внимание количество ограничено!!!

OK

1+1

iTunes

мы

OK

1

WEB-DLRip

Джокер

Пифагор

Ведьмак / The Witcher сериал

Лицензия

ПШазам

ОК

Оно 2

iTunes

30
pack

Вам бонус

ВАЖНО

!!Акция!!

Alien_RageХит недели

RePack

Resident Evil 21

ИГРА 18+

pack

RePack

jed

!!Акция!!

Alien_Rage

RePack

fifa19

RePack

Assassins Creed: Odyssey

RePack

NEED FOR SPEED™ PAYBACK

4 сезон

9 сезон

Бесстыжие 9 сезон

Все сериалы

все сериалы на PB.wtf

RePack

FAR CRY 5
  

К чёрту любовь! / Down With Love (Пейтон Рид) [2003, комедия, мелодрама, BDRip 1080p by msltel] DUB, MVO pb.wtf

К чёрту любовь! через торрент pb.wtf

Раздают: 2 [ 0 KB/s ]
Размер: 10.02 GB | Добавлен: 1 мес. 3 д. назад | Торрент скачан:18 раз
Скачать  

14-12-2019 08:05 К чёрту любовь! Скачать торрент  

Название: К чёрту любовь!
Оригинальное название: Down With Love
Год выпуска: 2003
Страна: США, Германия
Жанр: комедия, мелодрама
Продолжительность: 01:37:23
Перевод: дублированный, профессиональный многоголосый

Режиссер: Пейтон Рид
В ролях: Рене Зеллвегер, Эван МакГрегор, Сара Полсон, Дэвид Хайд Пирс, Рэйчел Дрэч, Джек Плотник, Тони Рэндалл, Джон Эйлуорд, Уоррен Мансон, Мэтт Росс, Майкл Инсайн, Джери Райан, Ивана Миличевич, Мелисса Джордж, Дори Бартон, Лаура Кайтлингер, Флоренс Стэнли, Линн Коллинз

О фильме: 1962 год. Барбара Новак взрывает весь Нью-Йорк своим бестселлером «К чёрту любовь!» и предлагает всем женщинам стать такими же, как мужчины — делать карьеру, заниматься сексом без обязательств. Кэтчер Блок — прожигатель жизни и дон-жуан. Он решает проучить ярую феминистку и полностью развенчать созданный ею мир женщин, отказавшихся от любви. Однако, в результате, он сам влюбляется в сексапильную литераторшу...



Качество: BDRip 1080p
Формат: MKV
Видео: MPEG-4 AVC, 13.5 Mбит/с, 1920x800, 25 кадр/с
Аудио 1: русский, AC3, 384 kbps, 6 ch, 48 kHz [дублированный]
Аудио 2: русский, AC3, 448 kbps, 6 ch, 48 kHz [закадровый многоголосый]
Аудио 3: английский, AC3, 448 kbps, 6 ch, 48 kHz [оригинал]
Субтитры 1: русские
Субтитры 2: английские
Главы/чаптеры
Общее
Уникальный идентификатор : 245217481072101363892218215236840799475 (0xB87B2B41834B4694A33098F5FEC93CF3)
Полное имя : D:\Video\К чёрту любовь!.2003.BDRip 1080p by msltel.mkv
Формат : Matroska
Версия формата : Version 4
Размер файла : 10,0 Гбайт
Продолжительность : 1 ч. 37 м.
Общий поток : 14,7 Мбит/сек
Название фильма : Rip by msltel
Дата кодирования : UTC 2019-12-14 06:08:00
Программа кодирования : mkvmerge v8.2.0 ('World of Adventure') 64bit
Библиотека кодирования : libebml v1.3.1 + libmatroska v1.4.2

Видео
Идентификатор : 1
Формат : AVC
Формат/Информация : Advanced Video Codec
Профиль формата : High@L4.1
Настройки формата : CABAC / 4 Ref Frames
Параметр CABAC формата : Да
Параметр RefFrames формата : 4 кадра
Идентификатор кодека : V_MPEG4/ISO/AVC
Продолжительность : 1 ч. 37 м.
Битрейт : 13,5 Мбит/сек
Ширина : 1920 пикселей
Высота : 800 пикселей
Соотношение сторон : 2,40:1
Режим частоты кадров : Постоянный
Частота кадров : 25,000 кадров/сек
Цветовое пространство : YUV
Субдискретизация насыщенности : 4:2:0
Битовая глубина : 8 бит
Тип развёртки : Прогрессивная
Бит/(Пиксели*Кадры) : 0.350
Размер потока : 9,15 Гбайт (91%)
Библиотека кодирования : x264 core 157 r2935 545de2f
Настройки программы : cabac=1 / ref=4 / deblock=1:-2:-2 / analyse=0x3:0x113 / me=umh / subme=11 / psy=1 / psy_rd=1.00:0.15 / mixed_ref=1 / me_range=32 / chroma_me=1 / trellis=2 / 8x8dct=1 / cqm=0 / deadzone=21,11 / fast_pskip=0 / chroma_qp_offset=-3 / threads=6 / lookahead_threads=1 / sliced_threads=0 / nr=0 / decimate=1 / interlaced=0 / bluray_compat=0 / constrained_intra=0 / bframes=11 / b_pyramid=2 / b_adapt=2 / b_bias=0 / direct=1 / weightb=1 / open_gop=0 / weightp=2 / keyint=240 / keyint_min=24 / scenecut=40 / intra_refresh=0 / rc_lookahead=40 / rc=crf / mbtree=0 / crf=17.3 / qcomp=0.60 / qpmin=0 / qpmax=69 / qpstep=4 / vbv_maxrate=50000 / vbv_bufsize=62500 / crf_max=0.0 / nal_hrd=none / filler=0 / ip_ratio=1.40 / pb_ratio=1.30 / aq=1:1.00
Язык : English
Default : Да
Forced : Нет

Аудио #1
Идентификатор : 2
Формат : AC-3
Формат/Информация : Audio Coding 3
Коммерческое название : Dolby Digital
Идентификатор кодека : A_AC3
Продолжительность : 1 ч. 37 м.
Вид битрейта : Постоянный
Битрейт : 384 Кбит/сек
Каналы : 6 каналов
ChannelLayout : L R C LFE Ls Rs
Частота : 48,0 КГц
Частота кадров : 31,250 кадров/сек (1536 SPF)
Метод сжатия : С потерями
Размер потока : 268 Мбайт (3%)
Заголовок : DUB
Язык : Russian
ServiceKind/String : Complete Main
Default : Да
Forced : Нет

Аудио #2
Идентификатор : 3
Формат : AC-3
Формат/Информация : Audio Coding 3
Коммерческое название : Dolby Digital
Идентификатор кодека : A_AC3
Продолжительность : 1 ч. 37 м.
Вид битрейта : Постоянный
Битрейт : 448 Кбит/сек
Каналы : 6 каналов
ChannelLayout : L R C LFE Ls Rs
Частота : 48,0 КГц
Частота кадров : 31,250 кадров/сек (1536 SPF)
Метод сжатия : С потерями
Размер потока : 312 Мбайт (3%)
Заголовок : MVO
Язык : Russian
ServiceKind/String : Complete Main
Default : Нет
Forced : Нет

Аудио #3
Идентификатор : 4
Формат : AC-3
Формат/Информация : Audio Coding 3
Коммерческое название : Dolby Digital
Идентификатор кодека : A_AC3
Продолжительность : 1 ч. 37 м.
Вид битрейта : Постоянный
Битрейт : 448 Кбит/сек
Каналы : 6 каналов
ChannelLayout : L R C LFE Ls Rs
Частота : 48,0 КГц
Частота кадров : 31,250 кадров/сек (1536 SPF)
Метод сжатия : С потерями
Размер потока : 312 Мбайт (3%)
Заголовок : original
Язык : English
ServiceKind/String : Complete Main
Default : Нет
Forced : Нет

Текст #1
Идентификатор : 5
Формат : UTF-8
Идентификатор кодека : S_TEXT/UTF8
Идентификатор кодека/Информация : UTF-8 Plain Text
Продолжительность : 1 ч. 36 м.
Битрейт : 122 бит/сек
ElementCount : 1300
Размер потока : 86,4 Кбайт (0%)
Заголовок : русские
Язык : Russian
Default : Нет
Forced : Нет

Текст #2
Идентификатор : 6
Формат : UTF-8
Идентификатор кодека : S_TEXT/UTF8
Идентификатор кодека/Информация : UTF-8 Plain Text
Продолжительность : 1 ч. 34 м.
Битрейт : 73 бит/сек
ElementCount : 1233
Размер потока : 50,5 Кбайт (0%)
Заголовок : английские
Язык : English
Default : Нет
Forced : Нет

Меню
00:00:00.000 : en:Chapter 01
00:10:10.720 : en:Chapter 02
00:24:26.000 : en:Chapter 03
00:35:04.360 : en:Chapter 04
00:46:27.160 : en:Chapter 05
00:55:34.240 : en:Chapter 06
01:06:02.360 : en:Chapter 07
01:20:57.360 : en:Chapter 08
01:31:05.280 : en:Chapter 09
pb.wtf



Скачать К чёрту любовь! через торрент https://c.radikal.ru/c00/1912/20/b8c45e3b0817.jpg Скачать фильм К чёрту любовь! через торрент бесплантно в хорошем качестве О фильме: 1962 год. Барбара Новак взрывает весь Нью-Йорк своим бестселлером «К чёрту любовь!» и предлагает всем женщинам стать такими же, ... 10 10 1
Info! Золотая раздача, скачанное не засчитывается.
Торрент: Зарегистрирован [2019-12-14 08:05] · скачан: 18 раз
Статус: √ проверено
Размер: 10.02 GB
Как cкачать? Как скачать К чёрту любовь! через торрент | qTorrent

% Раздел Тема Автор DL S | L
Фильмы [HD 720p, 1080p] (Хороший звук DUB, MVO) [ 4.19 GB ] К чёрту любовь! / Down With Love [2003 BDRip 720p by msltel] DUB MVO msltel Скачать
2 | 0
Фильмы 2001-2005 [ 2.46 GB ] К чёрту любовь! / Down With Love [2003 BDRip by msltel] DUB MVO msltel Скачать
3 | 0

28-11-2019 20:33  

Отключить всю рекламу на сайте

    Дорогой пользователь! Огромная просьба, поблагодарите релизера, оцените раздачу и оставьте свои комментарий, если Вы скачали К чёрту любовь! через торрент бесплатно! Внесите свою лепту в развитие PiratBit!
    Комментировать посты могут только пользователи прошедшие не сложную регистрацию
    Показать сообщения:    

    К чёрту любовь! через торрент
    Скачать бесплатно К чёрту любовь!
    К чёрту любовь! скачать торрент
    К чёрту любовь! смотреть онлайн
    Cкачать фильм К чёрту любовь! бесплатно
    К чёрту любовь! скачать торрент в хорошем качестве
    К чёрту любовь! смотреть онлайн бесплатно в хорошем качестве


    Вы не можете начинать темы
    Вы не можете отвечать на сообщения
    Вы не можете редактировать свои сообщения
    Вы не можете удалять свои сообщения
    Вы не можете голосовать в опросах
    Вы не можете прикреплять файлы к сообщениям
    Вы можете скачивать файлы