Ссылка на приватное зеркало всего за 1$. Внимание количество ограничено!!!

OK

1+1

iTunes

мы

OK

1

WEB-DLRip

Джокер

Пифагор

Ведьмак / The Witcher сериал

Лицензия

ПШазам

ОК

Оно 2

iTunes

30
pack

Вам бонус

ВАЖНО

!!Акция!!

Alien_RageХит недели

RePack

Resident Evil 21

ИГРА 18+

pack

RePack

jed

RePack

fifa19

RePack

Assassins Creed: Odyssey

RePack

NEED FOR SPEED™ PAYBACK

4 сезон

9 сезон

Бесстыжие 9 сезон

Все сериалы

все сериалы на PB.wtf

RePack

FAR CRY 5
  

В тихом омуте / I See You (Адам Рэндолл) [2019, триллер, детектив, драма, криминал, WEB-DLRip-AVC] DUB [iTunes] pb.wtf

В тихом омуте через торрент pb.wtf

Раздают: 16 [ 40 KB/s ]
Размер: 1.57 GB | Добавлен: 1 мес. 10 д. назад | Торрент скачан:347 раз
Скачать  

14-12-2019 08:32 В тихом омуте Скачать торрент  

В тихом омуте / I See You«True Evil Hides in Plain Sight»
Год выпуска: 2019
Страна: США
Студия: Head Gear Films, Kreo Films FZ, Local Hero
Жанр: триллер, детектив, драма, криминал
Продолжительность: 01:33:40
Перевод: Дублированный | iTunes
Субтитры: Русские (полные)

Режиссер: Адам Рэндолл

rating

В ролях: Хелен Хант, Джон Тенни, Джуда Льюис, Оуэн Тиг, Либэ Барер, Грегори Алан Уильямс, Эллисон Кинг, Эрика Александр, Дженнифер Грэйс, Адам Керн

Описание: В идиллически тихом и спокойном городке бесследно пропадает двенадцатилетний мальчик. За расследование берется детектив, который переживает раскол в семье, узнав о недавней измене своей жены. Тем временем смертельная угроза подбирается уже к его собственному дому…

Качество: WEB-DLRip-AVC
Формат: MKV

Видео: 1024x464 (2.20:1), 23,976 fps, x264 ~1 912 kbps avg, 0.168 bit/pixel
Аудио: 48 kHz, AC3 Dolby Digital, 3/2 (L,C,R,l,r) + LFE ch, ~384.00 kbps avg | RUS (iTunes)
скриншот  скриншот  скриншот  скриншот  

Общее
Уникальный идентификатор : 122540562595169493959155124187684996133 (0x5C3074322970EEC3380EA71541C50425)
Полное имя : F:OlLanDGroupI.See.You.2019.AMZN.WEB-DLRip(AVC).OllanDGroup.mkv
Формат : Matroska
Версия формата : Version 4 / Version 2
Размер файла : 1,57 Гбайт
Продолжительность : 1 ч. 38 м.
Общий поток : 2293 Кбит/сек
Название фильма : I See You 2019 #TorpedoUK#
Дата кодирования : UTC 2019-12-14 06:14:15
Программа кодирования : mkvmerge v29.0.0 ('Like It Or Not') 64-bit
Библиотека кодирования : libebml v1.3.6 + libmatroska v1.4.9

Видео
Идентификатор : 1
Формат : AVC
Формат/Информация : Advanced Video Codec
Профиль формата : High@L4.1
Параметр CABAC формата : Да
Параметр ReFrames формата : 10 кадров
Идентификатор кодека : V_MPEG4/ISO/AVC
Продолжительность : 1 ч. 38 м.
Битрейт : 1912 Кбит/сек
Ширина : 1024 пикселя
Высота : 464 пикселя
Соотношение сторон : 2,2:1
Режим частоты кадров : Постоянный
Частота кадров : 23,976 (24000/1001) кадра/сек
Цветовое пространство : YUV
Субдискретизация насыщенности : 4:2:0
Битовая глубина : 8 бит
Тип развёртки : Прогрессивная
Бит/(Пиксели*Кадры) : 0.168
Размер потока : 1,31 Гбайт (83%)
Библиотека кодирования : x264 core 146 r2538 121396c
Настройки программы : cabac=1 / ref=10 / deblock=1:-2:-3 / analyse=0x3:0x113 / me=umh / subme=11 / psy=1 / psy_rd=0.92:0.08 / mixed_ref=1 / me_range=48 / chroma_me=1 / trellis=2 / 8x8dct=1 / cqm=0 / deadzone=21,11 / fast_pskip=1 / chroma_qp_offset=-6 / threads=6 / lookahead_threads=1 / sliced_threads=0 / nr=0 / decimate=1 / interlaced=0 / bluray_compat=0 / constrained_intra=0 / bframes=11 / b_pyramid=2 / b_adapt=2 / b_bias=0 / direct=3 / weightb=1 / open_gop=0 / weightp=2 / keyint=240 / keyint_min=23 / scenecut=40 / intra_refresh=0 / rc_lookahead=40 / rc=2pass / mbtree=0 / bitrate=1912 / ratetol=1.0 / qcomp=0.60 / qpmin=0 / qpmax=69 / qpstep=4 / cplxblur=20.0 / qblur=0.5 / vbv_maxrate=50000 / vbv_bufsize=62500 / nal_hrd=none / filler=0 / ip_ratio=1.40 / pb_ratio=1.30 / aq=1:1.00
Язык : English
Default : Да
Forced : Нет

Аудио
Идентификатор : 2
Формат : AC-3
Формат/Информация : Audio Coding 3
Расширение режима : CM (complete main)
Параметр Endianness формата : Big
Идентификатор кодека : A_AC3
Продолжительность : 1 ч. 37 м.
Вид битрейта : Постоянный
Битрейт : 384 Кбит/сек
Каналы : 6 каналов
Расположение каналов : Front: L C R, Side: L R, LFE
Частота : 48,0 КГц
Частота кадров : 31,250 кадров/сек (1536 spf)
Битовая глубина : 16 бит
Метод сжатия : С потерями
Размер потока : 269 Мбайт (17%)
Заголовок : DUB [iTunes]
Язык : Russian
Default : Да
Forced : Нет

Текст
Идентификатор : 3
Формат : UTF-8
Идентификатор кодека : S_TEXT/UTF8
Идентификатор кодека/Информация : UTF-8 Plain Text
Продолжительность : 1 ч. 30 м.
Битрейт : 48 бит/сек
Count of elements : 670
Размер потока : 32,0 Кбайт (0%)
Заголовок : Full
Язык : Russian
Default : Нет
Forced : Нет

pb.wtf



Скачать В тихом омуте через торрент https://d.radikal.ru/d37/1912/93/79b3f9900200.jpg Скачать фильм В тихом омуте через торрент бесплантно в хорошем качестве Описание: В идиллически тихом и спокойном городке бесследно пропадает двенадцатилетний мальчик. За расследование берется детектив, который ... 8.3 10 13
Торрент: Зарегистрирован [2019-12-14 08:32] · скачан: 347 раз
Статус: √ проверено
Размер: 1.57 GB
Как cкачать? Как скачать В тихом омуте через торрент | qTorrent

% Раздел Тема Автор DL S | L
Фильмы 2019-2020 [DVDrip, WEB-DLRip, HDrip] (DUB, MVO) [ 1.46 GB ] В тихом омуте / I See You [2019 WEB-DLRip] bober100 Скачать
6 | 0
Фильмы (WEB-DL 720p, 1080p) [ 4.99 GB ] В тихом омуте / I See You [2019 WEB-DL 1080p] [AMAZON Version] bober100 Скачать
4 | 0
Фильмы (WEB-DL 720p, 1080p) [ 3.43 GB ] В тихом омуте / I See You [2019 WEB-DL 1080p] bober100 Скачать
2 | 0
Фильмы (WEB-DL 720p, 1080p) [ 2.5 GB ] В тихом омуте / I See You [2019 WEB-DL 720p] [AMAZON Version] bober100 Скачать
2 | 0

28-11-2019 20:33  

Отключить всю рекламу на сайте

14-12-2019 09:10 В тихом омуте Скачать торрент  

Классный фильмpb.wtf



    Дорогой пользователь! Огромная просьба, поблагодарите релизера, оцените раздачу и оставьте свои комментарий, если Вы скачали В тихом омуте через торрент бесплатно! Внесите свою лепту в развитие PiratBit!
    Комментировать посты могут только пользователи прошедшие не сложную регистрацию
    Показать сообщения:    

    В тихом омуте через торрент
    Скачать бесплатно В тихом омуте
    В тихом омуте скачать торрент
    В тихом омуте смотреть онлайн
    Cкачать фильм В тихом омуте бесплатно
    В тихом омуте скачать торрент в хорошем качестве
    В тихом омуте смотреть онлайн бесплатно в хорошем качестве


    Вы не можете начинать темы
    Вы не можете отвечать на сообщения
    Вы не можете редактировать свои сообщения
    Вы не можете удалять свои сообщения
    Вы не можете голосовать в опросах
    Вы не можете прикреплять файлы к сообщениям
    Вы можете скачивать файлы