Ссылка на приватное зеркало всего за 1$. Внимание количество ограничено!!!

OK

1+1

iTunes

мы

OK

1

WEB-DLRip

Джокер

Пифагор

Ведьмак / The Witcher сериал

Лицензия

ПШазам

ОК

Оно 2

iTunes

30
pack

Вам бонус

ВАЖНО

!!Акция!!

Alien_RageХит недели

RePack

Resident Evil 21

ИГРА 18+

pack

RePack

jed

!!Акция!!

Alien_Rage

RePack

fifa19

RePack

Assassins Creed: Odyssey

RePack

NEED FOR SPEED™ PAYBACK

4 сезон

9 сезон

Бесстыжие 9 сезон

Все сериалы

все сериалы на PB.wtf

RePack

FAR CRY 5
  

Голубая чашка (Майя Маркова, Владимир Храмов) [1964, СССР, детский, семейный, SATRip от AVP Studio] pb.wtf

Голубая чашка через торрент pb.wtf

Размер: 746 MB | Добавлен: 1 мес. 3 д. назад | Торрент скачан:5 раз
Скачать  

14-12-2019 11:10 Голубая чашка Скачать торрент  

Голубая чашка
Страна: СССР
Производство: ЦТ

Жанр: детский, семейный
Год выпуска: 1964
Продолжительность: 00:56:51

Перевод: Не требуется
Cубтитры: нет
Оригинальная аудиодорожка: русский

Режиссер: Майя Маркова, Владимир Храмов


Юрий Горобец, Люба Чумакова, Светлана Жгун, Борис Чирков, Светлана Харитонова, Женя Петунин, Владимир Удалов (III), Ниязик Иманкулов, Марина Антипова...
Об актёрах подробней


Телефильм по одноименной повести Аркадия Гайдара.
Это рассказ о том, как легко обидеть человека, как возникают семейные трещины и как важно взрослым понять друг друга, не допустить разлада.

Исходник: DVB
Качество видео: SATRip
Формат видео: AVI

Видео: 704x528 (4:3), 25,000 кадров/сек, XviD ~ 1632 kbps avg, 0.176 bit/pixel
Аудио: 48 kHz, Dolby Digital AC3 2.0, 192 kbps

Раздача от:
Общее
Полное имя : Golubaya.chashka.1964.WEB-DLRip_[New-team]_by_AVP_Studio.avi
Формат : AVI
Формат/Информация : Audio Video Interleave
Размер файла : 746 Мбайт
Продолжительность : 56 м. 51 с.
Общий поток : 1834 Кбит/сек
Программа кодирования : VirtualDubMod 1.5.10.3 | www.virtualdub-fr.org || (build 2550/release)
Библиотека кодирования : VirtualDubMod build 2550/release

Видео
Идентификатор : 0
Формат : MPEG-4 Visual
Профиль формата : Advanced Simple@L5
Настройки формата : BVOP1 / Custom Matrix
Параметр BVOP формата : 1
Параметр QPel формата : Нет
Параметр GMC формата : Без точки перехода
Параметр матрицы формата : Выборочная
Идентификатор кодека : XVID
Идентификатор кодека/Подсказка : XviD
Продолжительность : 56 м. 51 с.
Битрейт : 1632 Кбит/сек
Ширина : 704 пикселя
Высота : 528 пикселей
Соотношение сторон : 4:3
Частота кадров : 25,000 кадров/сек
Цветовое пространство : YUV
Субдискретизация насыщенности : 4:2:0
Битовая глубина : 8 бит
Тип развёртки : Прогрессивная
Метод сжатия : С потерями
Бит/(Пиксели*Кадры) : 0.176
Размер потока : 664 Мбайт (89%)
Библиотека кодирования : XviD 73

Аудио
Идентификатор : 1
Формат : AC-3
Формат/Информация : Audio Coding 3
Коммерческое название : Dolby Digital
Идентификатор кодека : 2000
Продолжительность : 56 м. 51 с.
Вид битрейта : Постоянный
Битрейт : 192 Кбит/сек
Каналы : 2 канала
ChannelLayout : L R
Частота : 48,0 КГц
Частота кадров : 31,250 кадров/сек (1536 SPF)
Битовая глубина : 16 бит
Метод сжатия : С потерями
Размер потока : 78,1 Мбайт (10%)
Выравнивание : Разделение по промежуткам
Продолжительность промежутка : 40 мс. (1,00 видеокадр)
Время предзагрузки промежутка : 500 мс
pb.wtf



Скачать Голубая чашка через торрент http://b.radikal.ru/b10/1912/59/67cc87dc1d65.png Скачать фильм Голубая чашка через торрент бесплантно в хорошем качестве Год выпуска: 1964Продолжительность: 00:56:51Перевод: Не требуетсяCубтитры: нетОригинальная аудиодорожка: русскийРежиссер: Майя Маркова, ... 10 10 1
Info! Золотая раздача, скачанное не засчитывается.
Торрент: Зарегистрирован [2019-12-14 11:10] · скачан: 5 раз
Статус: √ проверено
Размер: 746 MB
Как cкачать? Как скачать Голубая чашка через торрент | qTorrent

% Раздел Тема Автор DL S | L
Детские отечественные фильмы [ 745 MB ] Голубая чашка [1964 СССР детский SATRip-AVC от AVP Studio] AVP Studio Скачать
6 | 0

28-11-2019 20:33  

Отключить всю рекламу на сайте

    Дорогой пользователь! Огромная просьба, поблагодарите релизера, оцените раздачу и оставьте свои комментарий, если Вы скачали Голубая чашка через торрент бесплатно! Внесите свою лепту в развитие PiratBit!
    Комментировать посты могут только пользователи прошедшие не сложную регистрацию
    Показать сообщения:    

    Голубая чашка через торрент
    Скачать бесплатно Голубая чашка
    Голубая чашка скачать торрент
    Голубая чашка смотреть онлайн
    Cкачать фильм Голубая чашка бесплатно
    Голубая чашка скачать торрент в хорошем качестве
    Голубая чашка смотреть онлайн бесплатно в хорошем качестве


    Вы не можете начинать темы
    Вы не можете отвечать на сообщения
    Вы не можете редактировать свои сообщения
    Вы не можете удалять свои сообщения
    Вы не можете голосовать в опросах
    Вы не можете прикреплять файлы к сообщениям
    Вы можете скачивать файлы