2 сезон

iTunes

MVO

1

2 сезон

iTunes

iTunes

1 сезон

RePack

30

Ultimate

ВАЖНО

ИГРА 18+

pack

RePack

MK11
pack

Легкие деньги

RePack

jed

RePack

fifa19

RePack

RDR2

RePack

NEED FOR SPEED™ PAYBACK

4 сезон

9 сезон

Бесстыжие 9 сезон

Все сериалы

все сериалы на PB.wtf

RePack

FAR CRY 5

Anonymous, добрый день, мы не успеваем собрать деньги на оплату серверов за декабрь и январь, помогите нам пожалуйста в это трудное время. В качестве благодарности мы отключим Вам всю рекламу на сайте (укажите свой ник в строку Ваше имя)!

×
  
Magnet ссылка

Решала. Нулевые (Жаргал Бадмацыренов, Александр Кузьминов) [2019, боевик, драма, триллер, WEB-DL 1080p, (18+)] [iTunes] pb.wtf

Решала. Нулевые через торрент pb.wtf

Раздают: 4 [ 0 KB/s ]
Размер: 3.35 GB | Добавлен: 1 год назад | Торрент скачан:807 раз
Скачать  

14-12-2019 16:27 Решала. Нулевые Скачать торрент  

Решала. Нулевые
Год выпуска: 2019
Страна: Россия
Жанр: боевик, драма, триллер
Продолжительность: 01:27:24
Перевод: Не требуется | iTunes
Субтитры: отсутствуют
Версия 18+

Режиссер: Жаргал Бадмацыренов, Александр Кузьминов



В ролях: Константин Озеров, Моисей Куртанидзе, Чингиз Аздаев, Жаргал Бадмацыренов, Евгений Аёшин, Вячеслав Ширяев, Бэлик Дамбаев, Олег Петелин, Максим Сорочинский, Александра Чубыкина

Описание: 2008 год. Старинные друзья Костя и Завгар придумывают не совсем легальные схемы заработка. Деньги приходят легко и так же легко уходят. Кажется, что этот успех будет вечен. Но на каждого найдется свой капкан, особенно если хочется еще больше денег. Костя затевает большую игру, которая может стоить и ему, и Завгару свободы, дружбы и даже самой жизни.

Качество: WEB-DL 1080p
Формат: MKV

Видео: MPEG-4 AVC, 5102 Кбит/с, 1920x850, 24,000 fps
Аудио: 48 kHz, AC3 Dolby Digital, 3/2 (L,C,R,l,r) + LFE ch, ~384 kbps
скриншот  скриншот  скриншот  скриншот  

Общее
Уникальный идентификатор : 236560982952865966401613274157690081490 (0xB1F7FCF26F4A01F2B6DC6C45636F50D2)
Полное имя : C:\Reshala.Nulevye.2019.WEB-DL.(1080p).Getty..mkv
Формат : Matroska
Версия формата : Version 4
Размер файла : 3,35 Гбайт
Продолжительность : 1 ч. 27 м.
Общий поток : 5488 Кбит/сек
Название фильма : Reshala.nulevye.2019.WEB-DL.(1080p).Getty.
Дата кодирования : UTC 2020-01-01 23:06:21
Программа кодирования : mkvmerge v7.8.0 ('River Man') 32bit built on Mar 27 2015 16:18:02
Библиотека кодирования : libebml v1.3.1 + libmatroska v1.4.2

Видео
Идентификатор : 1
Формат : AVC
Формат/Информация : Advanced Video Codec
Профиль формата : High@L4
Настройки формата : CABAC / 4 Ref Frames
Параметр CABAC формата : Да
Параметр RefFrames формата : 4 кадра
Идентификатор кодека : V_MPEG4/ISO/AVC
Продолжительность : 1 ч. 27 м.
Битрейт : 5102 Кбит/сек
Ширина : 1920 пикселей
Высота : 850 пикселей
Соотношение сторон : 2,25:1
Режим частоты кадров : Постоянный
Частота кадров : 24,000 кадра/сек
Цветовое пространство : YUV
Субдискретизация насыщенности : 4:2:0
Битовая глубина : 8 бит
Тип развёртки : Прогрессивная
Бит/(Пиксели*Кадры) : 0.128
Размер потока : 3,05 Гбайт (91%)
Default : Да
Forced : Нет

Аудио
Идентификатор : 2
Формат : AC-3
Формат/Информация : Audio Coding 3
Коммерческое название : Dolby Digital
Идентификатор кодека : A_AC3
Продолжительность : 1 ч. 27 м.
Вид битрейта : Постоянный
Битрейт : 384 Кбит/сек
Каналы : 6 каналов
ChannelLayout : L R C LFE Ls Rs
Частота : 48,0 КГц
Частота кадров : 31,250 кадров/сек (1536 SPF)
Битовая глубина : 16 бит
Метод сжатия : С потерями
Размер потока : 240 Мбайт (7%)
ServiceKind/String : Complete Main
Default : Да
Forced : Нет

pb.wtf



Скачать Решала. Нулевые через торрент https://d.radikal.ru/d09/1912/ee/a15436dff807.jpg Скачать фильм Решала. Нулевые через торрент бесплантно в хорошем качестве Описание: 2008 год. Старинные друзья Костя и Завгар придумывают не совсем легальные схемы заработка. Деньги приходят легко и так же легко ... 9.9 10 22
Info! Золотая раздача, скачанное не засчитывается.
Торрент: Зарегистрирован [2020-01-02 04:55] · скачан: 807 раз
Статус: √ проверено
Размер: 3.35 GB
Как cкачать? Как скачать Решала. Нулевые через торрент | UTorrent

% Раздел Тема Автор DL S | L
Наши фильмы (HD, WEB-DL 720p, 1080p) [ 1.94 GB ] Решала. Нулевые [2019 WEB-DL 720p ] bober100 Скачать
1 | 0
Наши фильмы 2018-2019 [ 1.45 GB ] Решала. Нулевые [2019 WEB-DLRip-AVC ] bober100 Скачать
2 | 0
Наши фильмы 2018-2019 [ 1.37 GB ] Решала. Нулевые [2019 WEB-DLRip ] bober100 Скачать
116 | 4
Наши фильмы 2018-2019 [ 744 MB ] Решала. Нулевые [2019 WEB-DLRip ] bober100 Скачать
1 | 0


Последний раз редактировалось: bober100 (2020-01-02 04:54), всего редактировалось 1 раз

28-11-2019 20:33  

Отключить всю рекламу на сайте

    Дорогой пользователь! Огромная просьба, поблагодарите релизера, оцените раздачу и оставьте свои комментарий, если Вы скачали Решала. Нулевые через торрент бесплатно! Внесите свою лепту в развитие PiratBit!
    Комментировать посты могут только пользователи прошедшие не сложную регистрацию
    Показать сообщения:    

    Решала. Нулевые через торрент
    Скачать бесплатно Решала. Нулевые
    Решала. Нулевые скачать торрент
    Решала. Нулевые смотреть онлайн
    Cкачать фильм Решала. Нулевые бесплатно
    Решала. Нулевые скачать торрент в хорошем качестве
    Решала. Нулевые смотреть онлайн бесплатно в хорошем качестве


    Вы не можете начинать темы
    Вы не можете отвечать на сообщения
    Вы не можете редактировать свои сообщения
    Вы не можете удалять свои сообщения
    Вы не можете голосовать в опросах
    Вы не можете прикреплять файлы к сообщениям
    Вы можете скачивать файлы