Ссылка на приватное зеркало всего за 1$. Внимание количество ограничено!!!

OK

1+1

iTunes

мы

OK

1

WEB-DLRip

Джокер

Пифагор

Ведьмак / The Witcher сериал

Лицензия

ПШазам

ОК

Оно 2

iTunes

30
pack

Вам бонус

ВАЖНО

!!Акция!!

Alien_RageХит недели

RePack

Resident Evil 21

ИГРА 18+

pack

RePack

jed

!!Акция!!

Alien_Rage

RePack

fifa19

RePack

Assassins Creed: Odyssey

RePack

NEED FOR SPEED™ PAYBACK

4 сезон

9 сезон

Бесстыжие 9 сезон

Все сериалы

все сериалы на PB.wtf

RePack

FAR CRY 5
  

Скажи только слово / Серии: 1-4 из 4 (Олег Филипенко) [2019, Мелодрама, WEB-DLRip] pb.wtf

Скажи только слово через торрент pb.wtf

Размер: 2.46 GB | Добавлен: 1 мес. 5 д. назад | Торрент скачан:21 раз
Скачать  

14-12-2019 17:36 Скажи только слово Скачать торрент  

Скажи только слово
Год выпуска: 2019
Страна: Россия, Украина
Жанр: Мелодрама
Продолжительность: ~ 00:48:00 серия
Субтитры: отсутствуют

Режиссер: Олег Филипенко

В ролях: Ольга Гришина, Валентин Томусяк, Сергей Деньга, Анна Саливанчук, Виктор Андриенко, Нина Касторф, Алексей Дзюбинский, Сергей Уманец, Денис Роднянский, Инга Нагорная

Описание: Несмотря на предательство любимого человека, Рита сумела наладить свою жизнь. Она уверена в себе, любит свою работу, заботится о маме и 12-летнем сыне. То что, она не замужем, - это её сознательный выбор, ведь она больше не верит в любовь. Но всё меняется, когда в её жизни появляется звезда сериалов Антон, рушащий представления Риты о легкомысленных актёрах-бабниках, и отец её сына – Виктор, который, кажется, готов признать свои ошибки и вернуть любовь Риты...

Качество: WEB-DLRip
Формат: AVI

Видео: XviD, ~ 1605 Кбит/с, 720x400, 25 кадр/с
Аудио: AC3, 2 ch, 192 Кбит/с
скриншот  скриншот  скриншот  скриншот  скриншот  

General
Complete name: C:01.Скажи только слово.(2019).WEB-DLRip.by.Nicodem.Files-x.avi
Format: AVI
Format/Info: Audio Video Interleave
File size: 630 MiB
Duration: 48mn 46s
Overall bit rate: 1 807 Kbps
Writing application: VirtualDubMod 1.5.10.3 | www.virtualdub-fr.org || (build 2550/release)
Writing library: VirtualDubMod build 2550/release

Video
ID: 0
Format: MPEG-4 Visual
Format profile: Advanced Simple@L5
Format settings, BVOP: 1
Format settings, QPel: No
Format settings, GMC: No warppoints
Format settings, Matrix: Custom
Codec ID: XVID
Codec ID/Hint: XviD
Duration: 48mn 46s
Bit rate: 1 605 Kbps
Width: 720 pixels
Height: 400 pixels
Display aspect ratio: 16:9
Frame rate: 25.000 fps
Color space: YUV
Chroma subsampling: 4:2:0
Bit depth: 8 bits
Scan type: Progressive
Compression mode: Lossy
Bits/(Pixel*Frame): 0.223
Stream size: 560 MiB (89%)
Writing library: XviD 73

Audio
ID: 1
Format: AC-3
Format/Info: Audio Coding 3
Mode extension: CM (complete main)
Codec ID: 2000
Duration: 48mn 46s
Bit rate mode: Constant
Bit rate: 192 Kbps
Channel(s): 2 channels
Channel positions: Front: L R
Sampling rate: 48.0 KHz
Bit depth: 16 bits
Compression mode: Lossy
Stream size: 67.0 MiB (11%)
Alignment: Split accross interleaves
Interleave, duration: 40 ms (1.00 video frame)
Interleave, preload duration: 500 ms

pb.wtf



Скачать Скажи только слово через торрент https://b.radikal.ru/b11/1912/5c/ee8fcd838c17.jpg Скачать фильм Скажи только слово через торрент бесплантно в хорошем качестве Описание: Несмотря на предательство любимого человека, Рита сумела наладить свою жизнь. Она уверена в себе, любит свою работу, заботится о ... 10 10 4
Торрент: Зарегистрирован [2019-12-14 17:36] · скачан: 21 раз
Статус: √ проверено
Размер: 2.46 GB
Как cкачать? Как скачать Скажи только слово через торрент | qTorrent

% Раздел Тема Автор DL S | L
Наши сериалы [ 2.41 GB ] Скажи только слово / Серии: 1-4 из 4 [2019 Мело WEB-DLRip-AVC] bober100 Скачать
1 | 0

28-11-2019 20:33  

Отключить всю рекламу на сайте

    Дорогой пользователь! Огромная просьба, поблагодарите релизера, оцените раздачу и оставьте свои комментарий, если Вы скачали Скажи только слово через торрент бесплатно! Внесите свою лепту в развитие PiratBit!
    Комментировать посты могут только пользователи прошедшие не сложную регистрацию
    Показать сообщения:    

    Скажи только слово через торрент
    Скачать бесплатно Скажи только слово
    Скажи только слово скачать торрент
    Скажи только слово смотреть онлайн
    Cкачать фильм Скажи только слово бесплатно
    Скажи только слово скачать торрент в хорошем качестве
    Скажи только слово смотреть онлайн бесплатно в хорошем качестве


    Вы не можете начинать темы
    Вы не можете отвечать на сообщения
    Вы не можете редактировать свои сообщения
    Вы не можете удалять свои сообщения
    Вы не можете голосовать в опросах
    Вы не можете прикреплять файлы к сообщениям
    Вы можете скачивать файлы