Ссылка на приватное зеркало нашего сайта всего за 1$. Внимание количество ограничено!!!

2 сезон

iTunes

1 сезон

1

iTunes

iTunes

iTunes

1 сезон

RePack

30

ИГРА 18+

pack

ВАЖНО

!!Акция!!

Alien_RageХит недели

RePack

MK11
pack

Забери бонус

RePack

jed

!!Акция!!

Alien_Rage

RePack

fifa19

RePack

Assassins Creed: Odyssey

RePack

NEED FOR SPEED™ PAYBACK

4 сезон

9 сезон

Бесстыжие 9 сезон

Все сериалы

все сериалы на PB.wtf

RePack

FAR CRY 5
  

Папик / Сезон: 1 / Серии: 1-16 из 16 + Взгляд изнутри (Андрей Яковлев) [2019, Комедия, WEB-DL 720p] pb.wtf

Папик через торрент pb.wtf

Раздают: 1 [ 0 KB/s ]
Размер: 7.28 GB | Добавлен: 10 мес. назад | Торрент скачан:456 раз
Скачать  

14-12-2019 17:41 Папик Скачать торрент  

Папик Год выпуска: 2019
Страна: Украина
Студия: Студия Квартал 95
Жанр: Комедия
Продолжительность: ~ 00:33:00 серия
Перевод: Не требуется
Субтитры: отсутствуют

Режиссер: Андрей Яковлев

В ролях: Станислав Боклан, Дарья Петрожицкая, Сергей Сипливый, Олеся Жураковская, Екатерина Кистень, Вера Кобзарь, Вячеслав Гиндин, Михаил Кукуюк

Описание: По сюжету, пенсионер, некогда популярный актер кино, доведенный до отчаяния, решает свести счеты с жизнью. Но напоследок хочет привести себя в порядок и идет в модный барбершоп. Там ему, конечно же, наливают, после чего его тянет на последние в своей жизни приключения. Но неожиданно в одном из клубов главный герой знакомится с девушкой, охотницей на "папиков", которая принимает его за успешного миллионера...

Качество: WEB-DL 720p
Формат: MKV

Видео: MPEG-4 AVC, ~ 1759 Кбит/с, 1280x720, 25 кадр/с
Аудио: AC3, 2 ch, 192 Кбит/с
скриншот  скриншот  скриншот  скриншот  скриншот  

General
Unique ID : 42757318743015028218382862836491842121 (0x202AC292B1EC38EAF366D338D2737249)
Complete name : C:01.Папик.s01.E01.(2019).WEB-DL (720p).by.Nicodem.Files-x.mkv
Format : Matroska
File size : 464 MiB
Duration : 32mn 37s
Overall bit rate : 1 990 Kbps
Writing application : Lavf56.36.100
Writing library : Lavf56.36.100

Video
ID : 1
Format : AVC
Format/Info : Advanced Video Codec
Format profile : High@L3.1
Format settings, CABAC : Yes
Format settings, ReFrames : 4 frames
Format settings, GOP : M=3, N=50
Codec ID : V_MPEG4/ISO/AVC
Duration : 32mn 37s
Bit rate mode : Variable
Bit rate : 1 759 Kbps
Width : 1 280 pixels
Height : 720 pixels
Display aspect ratio : 16:9
Frame rate : 25.000 fps
Color space : YUV
Chroma subsampling : 4:2:0
Bit depth : 8 bits
Scan type : Progressive
Bits/(Pixel*Frame) : 0.076
Stream size : 410 MiB (88%)
Language : English

Audio
ID : 2
Format : AC-3
Format/Info : Audio Coding 3
Mode extension : CM (complete main)
Codec ID : A_AC3
Duration : 32mn 37s
Bit rate mode : Constant
Bit rate : 192 Kbps
Channel(s) : 2 channels
Channel positions : Front: L R
Sampling rate : 44.1 KHz
Bit depth : 16 bits
Compression mode : Lossy
Delay relative to video : 1mn 5s
Stream size : 44.8 MiB (10%)
Language : English / un

pb.wtf



Скачать Папик через торрент https://i111.fastpic.ru/big/2019/1203/af/290e4e8029d9f85b6f5cf1821c20e7af.jpg Скачать фильм Папик через торрент бесплантно в хорошем качестве Описание: По сюжету, пенсионер, некогда популярный актер кино, доведенный до отчаяния, решает свести счеты с жизнью. Но напоследок хочет ... 9.2 10 11
Info! Золотая раздача, скачанное не засчитывается.
Торрент: Зарегистрирован [2019-12-14 17:41] · скачан: 456 раз
Статус: √ проверено
Размер: 7.28 GB
Как cкачать? Как скачать Папик через торрент | qTorrent

% Раздел Тема Автор DL S | L
Наши сериалы [ 6.48 GB ] Папик / Сезон: 1 / Серии: 1-16 из 16 + Взгляд изнутри [2019 WEB-DLRip] bober100 Скачать
1 | 0
Наши сериалы [ 6.44 GB ] Папик / Сезон: 1 / Серии: 1-16 из 16 + Взгляд изнутри [2019 WEB-DLRip-AVC] bober100 Скачать
2 | 0

28-11-2019 20:33  

Отключить всю рекламу на сайте

25-02-2020 19:57 Папик Скачать торрент  

Пилотная серия не зацепила, но потом... это нечто...Короче... Сериал супер.pb.wtf



    Дорогой пользователь! Огромная просьба, поблагодарите релизера, оцените раздачу и оставьте свои комментарий, если Вы скачали Папик через торрент бесплатно! Внесите свою лепту в развитие PiratBit!
    Комментировать посты могут только пользователи прошедшие не сложную регистрацию
    Показать сообщения:    

    Папик через торрент
    Скачать бесплатно Папик
    Папик скачать торрент
    Папик смотреть онлайн
    Cкачать фильм Папик бесплатно
    Папик скачать торрент в хорошем качестве
    Папик смотреть онлайн бесплатно в хорошем качестве


    Вы не можете начинать темы
    Вы не можете отвечать на сообщения
    Вы не можете редактировать свои сообщения
    Вы не можете удалять свои сообщения
    Вы не можете голосовать в опросах
    Вы не можете прикреплять файлы к сообщениям
    Вы можете скачивать файлы