Ссылка на приватное зеркало нашего сайта всего за 1$. Внимание количество ограничено!!!

2 сезон

iTunes

1 сезон

1

2 сезон

2 сезон

iTunes

1 сезон

RePack

30

Ultimate

ВАЖНО

ИГРА 18+

pack

RePack

MK11
pack

Забери бонус

RePack

jed

!!Акция!!

Alien_Rage

RePack

fifa19

RePack

Assassins Creed: Odyssey

RePack

NEED FOR SPEED™ PAYBACK

4 сезон

9 сезон

Бесстыжие 9 сезон

Все сериалы

все сериалы на PB.wtf

RePack

FAR CRY 5
  

Война токов / The Current War (Альфонсо Гомес-Рехон) [2017, Драма, биография, история, BD Remux 1080p] MVO [Pazl Voice] pb.wtf

Война токов через торрент pb.wtf

Размер: 24.17 GB | Добавлен: 11 мес. назад | Торрент скачан:74 раза
Скачать  

14-12-2019 19:46 Война токов Скачать торрент  

Война токов / The Current War
Год выпуска: 2017
Страна: США
Жанр: Драма, биография, история
Продолжительность: 01:47:54
Перевод: Профессиональный (многоголосый) | Pazl Voice
Субтитры: Английские

Режиссер: Альфонсо Гомес-Рехон

rating

В ролях: Бенедикт Камбербэтч, Том Холланд, Майкл Шеннон, Николас Холт, Кэтрин Уотерстон, Мэттью Макфэдиен, Таппенс Мидлтон, Вуди Норман, Луис Эшборн Серкис, Дэмиен Молони, Саймон Кунц, Эми Марстон, Крэйг Конуэй, Саймон Маньонда, Стэнли Таунсенд, Том Свит, Колин Стинтон

Описание: Америка, 1880 год. Мир освещается огнём, механизмы приводятся в движение паром или приложением силы. Гениальный изобретатель Томас Эдисон совершил ряд прорывных открытий, среди которых постоянный ток и изобретение лампы накаливания. Пока он встречается с инвесторами, инженер Джордж Вестингауз, сколотивший состояние на патенте тормозов для поездов, видит больше преимуществ в использовании переменного тока. Кроме того, недальновидный бизнесмен Эдисон берёт на работу простым инженером эмигранта Николу Теслу, и не увидев в его идеях потенциала, вскоре теряет ценного сотрудника. Соревнование за электрификацию американских городов — война постоянного и переменного токов продолжается.

Качество: BD Remux 1080p
Формат: MKV

Видео: MPEG-4 AVC, 29.8 Mбит/с, 1920x1080
Аудио#1: Русский (AC3, 6 ch, 384 Кбит/с)
Аудио#2: английский (DTS-HD MA, 6 ch, 1862 Кбит/с)
скриншот  скриншот  скриншот  скриншот  скриншот  

General
Unique ID : 11361699662742145896547129388946879911 (0x88C2F0AE48E93810E1318CC16FAF5A7)
Complete name : F:\Новая папка (15)\The.Current.War.2017.BDREMUX 1080p.mkv
Format : Matroska
Format version : Version 4
File size : 24.2 GiB
Duration : 1 h 47 min
Overall bit rate mode : Variable
Overall bit rate : 32.1 Mb/s
Movie name : The.Current.War.2017.BDREMUX 1080p
Encoded date : UTC 2019-12-14 17:35:36
Writing application : mkvmerge v29.0.0 ('Like It Or Not') 64-bit
Writing library : libebml v1.3.6 + libmatroska v1.4.9
Cover : Yes
Attachments : small_cover.jpg / small_cover_land.jpg / cover.jpg / cover_land.jpg

Video
ID : 1
Format : AVC
Format/Info : Advanced Video Codec
Format profile : High@L4.1
Format settings : CABAC / 4 Ref Frames
Format settings, CABAC : Yes
Format settings, RefFrames : 4 frames
Codec ID : V_MPEG4/ISO/AVC
Duration : 1 h 47 min
Bit rate mode : Variable
Bit rate : 29.8 Mb/s
Maximum bit rate : 33.0 Mb/s
Width : 1 920 pixels
Height : 1 080 pixels
Display aspect ratio : 16:9
Frame rate mode : Constant
Frame rate : 24.000 FPS
Color space : YUV
Chroma subsampling : 4:2:0
Bit depth : 8 bits
Scan type : Progressive
Bits/(Pixel*Frame) : 0.599
Stream size : 22.5 GiB (93%)
Title : The.Current.War.2017.BDREMUX 1080p
Language : English
Default : No
Forced : No

Audio #1
ID : 2
Format : AC-3
Format/Info : Audio Coding 3
Commercial name : Dolby Digital
Codec ID : A_AC3
Duration : 1 h 47 min
Bit rate mode : Constant
Bit rate : 384 kb/s
Channel(s) : 6 channels
Channel layout : L R C LFE Ls Rs
Sampling rate : 48.0 kHz
Frame rate : 31.250 FPS (1536 SPF)
Bit depth : 16 bits
Compression mode : Lossy
Stream size : 296 MiB (1%)
Title : Pazl Voice*
Language : Russian
Service kind : Complete Main
Default : Yes
Forced : No

Audio #2
ID : 3
Format : DTS XLL
Format/Info : Digital Theater Systems
Commercial name : DTS-HD Master Audio
Codec ID : A_DTS
Duration : 1 h 47 min
Bit rate mode : Variable
Bit rate : 1 862 kb/s
Channel(s) : 6 channels
Channel layout : C L R Ls Rs LFE
Sampling rate : 48.0 kHz
Frame rate : 93.750 FPS (512 SPF)
Bit depth : 16 bits
Compression mode : Lossless
Stream size : 1.40 GiB (6%)
Title : Original
Language : English
Default : No
Forced : No

Text #1
ID : 4
Format : UTF-8
Codec ID : S_TEXT/UTF8
Codec ID/Info : UTF-8 Plain Text
Duration : 1 h 37 min
Bit rate : 72 b/s
Count of elements : 1270
Stream size : 51.5 KiB (0%)
Language : English
Default : No
Forced : No

Text #2
ID : 5
Format : UTF-8
Codec ID : S_TEXT/UTF8
Codec ID/Info : UTF-8 Plain Text
Duration : 1 h 40 min
Bit rate : 73 b/s
Count of elements : 1356
Stream size : 54.6 KiB (0%)
Title : SDH
Language : English
Default : No
Forced : No

Menu
00:00:00.000 : en:Chapter 01
00:08:25.250 : en:Chapter 02
00:14:57.583 : en:Chapter 03
00:24:11.416 : en:Chapter 04
00:32:44.250 : en:Chapter 05
00:43:11.833 : en:Chapter 06
00:50:58.666 : en:Chapter 07
01:02:35.416 : en:Chapter 08
01:12:04.333 : en:Chapter 09
01:19:09.458 : en:Chapter 10
01:26:40.416 : en:Chapter 11
01:33:08.250 : en:Chapter 12

pb.wtf



Скачать Война токов через торрент https://c.radikal.ru/c28/1912/10/936461662198.jpg Скачать фильм Война токов через торрент бесплантно в хорошем качестве Описание: Америка, 1880 год. Мир освещается огнём, механизмы приводятся в движение паром или приложением силы. Гениальный изобретатель ... 10 10 4
Торрент: Зарегистрирован [2019-12-14 19:46] · скачан: 74 раз
Статус: √ проверено
Размер: 24.17 GB
Как cкачать? Как скачать Война токов через торрент | qTorrent

% Раздел Тема Автор DL S | L
Фильмы [HD 720p, 1080p] (Хороший звук DUB, MVO) [ 13.01 GB ] Война токов / The Current War [2017 биография история BDRip 1080p ] bober100 Скачать
2 | 0
Фильмы [HD 720p, 1080p] (Хороший звук DUB, MVO) [ 5.69 GB ] Война токов / The Current War [2017 биография история BDRip 720p ] bober100 Скачать
1 | 0
Фильмы 2017 [DVDrip, WEB-DLRip, HDrip] (DUB, MVO) [ 1.45 GB ] Война токов / The Current War [2017 биография история BDRip ] bober100 Скачать
3 | 0
T Фильмы [HD 720p, 1080p] (Хороший звук DUB, MVO) [ 4.66 GB ] Война токов / The Current War [2017 биография история BDRip 720p] MVO [Pazl Voice] bober100 Скачать
2 | 0
Фильмы [HD 720p, 1080p] (Хороший звук DUB, MVO) [ 13.27 GB ] Война токов / The Current War [2017 биография история BDRip 1080p] [MVO] killermax2013 Скачать
4 | 0
Фильмы 2017 [DVDrip, WEB-DLRip, HDrip] (DUB, MVO) [ 1.46 GB ] Война токов / The Current War [2017 биография история BDRip] [UK Transfer] [MVO] killermax2013 Скачать
4 | 0

28-11-2019 20:33  

Отключить всю рекламу на сайте

    Дорогой пользователь! Огромная просьба, поблагодарите релизера, оцените раздачу и оставьте свои комментарий, если Вы скачали Война токов через торрент бесплатно! Внесите свою лепту в развитие PiratBit!
    Комментировать посты могут только пользователи прошедшие не сложную регистрацию
    Показать сообщения:    

    Война токов через торрент
    Скачать бесплатно Война токов
    Война токов скачать торрент
    Война токов смотреть онлайн
    Cкачать фильм Война токов бесплатно
    Война токов скачать торрент в хорошем качестве
    Война токов смотреть онлайн бесплатно в хорошем качестве


    Вы не можете начинать темы
    Вы не можете отвечать на сообщения
    Вы не можете редактировать свои сообщения
    Вы не можете удалять свои сообщения
    Вы не можете голосовать в опросах
    Вы не можете прикреплять файлы к сообщениям
    Вы можете скачивать файлы