2 сезон

iTunes

1 сезон

1

iTunes

iTunes

iTunes

1 сезон

RePack

30

ИГРА 18+

pack

ВАЖНО

!!Акция!!

Alien_RageХит недели

RePack

MK11
pack

Забери бонус

RePack

jed

!!Акция!!

Alien_Rage

RePack

fifa19

RePack

Assassins Creed: Odyssey

RePack

NEED FOR SPEED™ PAYBACK

4 сезон

9 сезон

Бесстыжие 9 сезон

Все сериалы

все сериалы на PB.wtf

RePack

FAR CRY 5
  

Девичий лес / Серии: 1-4 из 4 (Владимир Шевельков) [2019, Детектив, WEB-DLRip] pb.wtf

Девичий лес через торрент pb.wtf

Размер: 2.34 GB | Добавлен: 10 мес. назад | Торрент скачан:51 раз
Скачать  

15-12-2019 05:14 Девичий лес Скачать торрент  

Девичий лес Год выпуска: 2019
Страна: Россия
Жанр: Детектив
Продолжительность: ~ 00:45:00 серия
Субтитры: отсутствуют

Режиссер: Владимир Шевельков



В ролях: Анна Королева (II), Алексей Нилов, Игорь Юдин, Татьяна Ткач, Руслан Барабанов, Галина Бокашевская, Владимир Шевельков, Максим Меркулов (II), Геннадий Смирнов, Евгений Славский, Надежда Некрасова, Михаил Новиков, Виктория Воскресенская, Сергей Кореньков

Описание: По роману Татьяны Поляковой «У прокурора век недолог». Алла решает порвать отношения с женатым любовником, прокурором Акимовым. Она угробила на него несколько лет жизни и больше не верит ему. Он умоляет о встрече, по телефону говорит о какой-то опасности, которая ей грозит, обещает в чем-то признаться… Алла не хочет ничего слушать и едет домой. Перед дверью своей квартиры она находит умирающего Акимова. Алла становится подозреваемой. Чтобы доказать, что не она убила любовника, женщина ввязывается в расследование и вскоре выясняет, что это убийство как-то связано с делом, которое ведет муж ее подруги. В городе бесследно пропадают молодые женщины, которые посещали тренинги модного психолога. Решив сходить на один из тренингов, Алла вступает на опасный путь, и закончится он совсем не так, как ей представлялось.

Качество: WEB-DLRip
Формат: AVI

Видео: XviD, ~ 1600 Кбит/с, 720x400
Аудио: AC3, 2 ch, 192 Кбит/с
скриншот  скриншот  скриншот  скриншот  

General
Complete name: C:\00\6354\Девичий лес .2019. WEB-DLRip. Files-x\01. Девичий лес .2019. WEB-DLRip. Files-x.avi
Format: AVI
Format/Info: Audio Video Interleave
File size: 630 MiB
Duration: 48mn 51s
Overall bit rate: 1 802 Kbps
Writing application: VirtualDubMod 1.5.10.3 | www.virtualdub-fr.org || (build 2550/release)
Writing library: VirtualDubMod build 2550/release

Video
ID: 0
Format: MPEG-4 Visual
Format profile: Advanced Simple@L5
Format settings, BVOP: 1
Format settings, QPel: No
Format settings, GMC: No warppoints
Format settings, Matrix: Custom
Codec ID: XVID
Codec ID/Hint: XviD
Duration: 48mn 51s
Bit rate: 1 600 Kbps
Width: 720 pixels
Height: 400 pixels
Display aspect ratio: 16:9
Frame rate: 25.000 fps
Color space: YUV
Chroma subsampling: 4:2:0
Bit depth: 8 bits
Scan type: Progressive
Compression mode: Lossy
Bits/(Pixel*Frame): 0.222
Stream size: 559 MiB (89%)
Writing library: XviD 73

Audio
ID: 1
Format: AC-3
Format/Info: Audio Coding 3
Mode extension: CM (complete main)
Codec ID: 2000
Duration: 48mn 51s
Bit rate mode: Constant
Bit rate: 192 Kbps
Channel(s): 2 channels
Channel positions: Front: L R
Sampling rate: 48.0 KHz
Bit depth: 16 bits
Compression mode: Lossy
Stream size: 67.1 MiB (11%)
Alignment: Split accross interleaves
Interleave, duration: 40 ms (1.00 video frame)
Interleave, preload duration: 500 ms

pb.wtf



Скачать Девичий лес через торрент https://d.radikal.ru/d36/1912/ef/28f108d46112.jpg Скачать фильм Девичий лес через торрент бесплантно в хорошем качестве Описание: По роману Татьяны Поляковой «У прокурора век недолог». Алла решает порвать отношения с женатым любовником, прокурором Акимовым. ... 8.2 10 5
Торрент: Зарегистрирован [2019-12-15 05:14] · скачан: 51 раз
Статус: √ проверено
Размер: 2.34 GB
Как cкачать? Как скачать Девичий лес через торрент | qTorrent

% Раздел Тема Автор DL S | L
Наши сериалы [ 2.33 GB ] Девичий лес / Серии: 1-4 из 4 [2019 WEB-DLRip-AVC] bober100 Скачать
1 | 0
Наши сериалы [ 2.46 GB ] Девичий лес / Серии: 1-4 из 4 [2019 SATRip] bober100 Скачать
1 | 0
Наши сериалы [ 2.19 GB ] Девичий лес / Серии: 1-4 из 4 [2019 экранизация SATRip-AVC] aleksan55 Скачать
1 | 0

28-11-2019 20:33  

Отключить всю рекламу на сайте

    Дорогой пользователь! Огромная просьба, поблагодарите релизера, оцените раздачу и оставьте свои комментарий, если Вы скачали Девичий лес через торрент бесплатно! Внесите свою лепту в развитие PiratBit!
    Комментировать посты могут только пользователи прошедшие не сложную регистрацию
    Показать сообщения:    

    Девичий лес через торрент
    Скачать бесплатно Девичий лес
    Девичий лес скачать торрент
    Девичий лес смотреть онлайн
    Cкачать фильм Девичий лес бесплатно
    Девичий лес скачать торрент в хорошем качестве
    Девичий лес смотреть онлайн бесплатно в хорошем качестве


    Вы не можете начинать темы
    Вы не можете отвечать на сообщения
    Вы не можете редактировать свои сообщения
    Вы не можете удалять свои сообщения
    Вы не можете голосовать в опросах
    Вы не можете прикреплять файлы к сообщениям
    Вы можете скачивать файлы