2 сезон

iTunes

MVO

1

2 сезон

iTunes

iTunes

1 сезон

RePack

30

Новинка

ВАЖНО

ИГРА 18+

pack

RePack

MK11
pack

Легкие деньги

RePack

jed

RePack

fifa19

RePack

RDR2

RePack

NEED FOR SPEED™ PAYBACK

4 сезон

9 сезон

Бесстыжие 9 сезон

Все сериалы

все сериалы на PB.wtf

RePack

FAR CRY 5

Anonymous, доброй ночи, мы не успеваем собрать деньги на оплату серверов за декабрь и январь, помогите нам пожалуйста в это трудное время. В качестве благодарности мы отключим Вам всю рекламу на сайте (укажите свой ник в строку Ваше имя)!

×
  
Magnet ссылка

Касл-Рок / Castle Rock / Сезон: 2 / Серии: 1-10 из 10 (Грег Яйтанс, Крэйг Уилльям Макнейлл, Лони Перистер) [2019, Триллер, ужасы, фэнтези, драма, детектив, WEB-DL 720p] MVO [TVShows] pb.wtf

Касл-Рок через торрент pb.wtf

Размер: 7.15 GB | Добавлен: 1 год 1 мес. назад | Торрент скачан:27 раз
Скачать  

15-12-2019 07:17 Касл-Рок Скачать торрент  

Касл-Рок / Castle Rock Год выпуска: 2019
Страна: США
Жанр: триллер, ужасы, фэнтези, драма, детектив
Продолжительность: ~00:50:00
Перевод: Профессиональный (многоголосый закадровый) | TVShows
Субтитры: Английские

Режиссёры: Грег Яйтанс, Крэйг Уилльям Макнейлл, Лони Перистер

В ролях: Баркхад Абди, Меттью Алан, Лиззи Каплан, Элси Фишер, Тим Роббинс, Пол Спаркс, Юсра Варсама, Эбигейл Корриган, Чед Кнорр, Оуэн Бурк и др.

Описание: Джей Джей Абрамс и Стивен Кинг подготовили новый сезон нашумевшего сериала Касл-Рок, который включает в себя истории почти всех произведений Стивена Кинга.
В новом 2 сезоне Абрамс позвал на главную роль сниматься Лиззи Каплан, чья актерская игра навевает настоящий ужас.
В и без того несчастливый городок въезжает одна из самых жутких героинь одного из самых страшных романов Кинга — психопатка Энни Уилкс в исполнении Лиззи Каплан. Ее появление спровоцирует войну и без того враждующих кланов Касл-Рока. Но война - это не самое страшное в сериале Касл-Рок. Важнее кто ее ведет, и какие силы она пробуждает.
В новом сезоне раскрываются моменты из романов Жребий и Солнечный пёс, либо Несущий смерть.



Качество: WEB-DL 720p
Формат: MKV

Видео: MPEG-4 AVC, ~ 1419 Кбит/с, 1280x720
Аудио#1: Русский (AC3, 6 ch, 384 Кбит/с)
Аудио#2: английский (E-AC3, 6 ch, 256 Кбит/с)
скриншот  скриншот  скриншот  скриншот  скриншот  

Общее
Уникальный идентификатор : 334685024729766666639364236872159107137 (0xFBC9FDB927E59B624A2AF1C5C8009841)
Полное имя : D:\Castle.Rock.S02.720p.TVShows\Castle.Rock.S02E01.720p.TVShows.mkv
Формат : Matroska
Версия формата : Version 4 / Version 2
Размер файла : 884 Мбайт
Продолжительность : 1 ч. 0 м.
Общий поток : 2051 Кбит/сек
Дата кодирования : UTC 2019-11-15 11:25:41
Программа кодирования : mkvmerge v33.1.0 ('Primrose') 64-bit
Библиотека кодирования : libebml v1.3.7 + libmatroska v1.5.0

Видео
Идентификатор : 1
Формат : AVC
Формат/Информация : Advanced Video Codec
Профиль формата : High@L3.1
Параметр CABAC формата : Да
Параметр RefFrames формата : 5 кадров
Идентификатор кодека : V_MPEG4/ISO/AVC
Продолжительность : 1 ч. 0 м.
Битрейт : 1409 Кбит/сек
Ширина : 1280 пикселей
Высота : 720 пикселей
Соотношение сторон : 16:9
Режим частоты кадров : Постоянный
Частота кадров : 23,976 (24000/1001) кадра/сек
Цветовое пространство : YUV
Субдискретизация насыщенности : 4:2:0
Битовая глубина : 8 бит
Тип развёртки : Прогрессивная
Бит/(Пиксели*Кадры) : 0.064
Размер потока : 607 Мбайт (69%)
Язык : English
Default : Да
Forced : Нет

Аудио #1
Идентификатор : 2
Формат : AC-3
Формат/Информация : Audio Coding 3
Расширение режима : CM (complete main)
Параметр Endianness формата : Big
Идентификатор кодека : A_AC3
Продолжительность : 1 ч. 0 м.
Вид битрейта : Постоянный
Битрейт : 384 Кбит/сек
Каналы : 6 каналов
Расположение каналов : Front: L C R, Side: L R, LFE
Частота : 48,0 КГц
Частота кадров : 31,250 кадров/сек (1536 spf)
Метод сжатия : С потерями
Размер потока : 166 Мбайт (19%)
Заголовок : TVShows
Язык : Russian
Default : Да
Forced : Да

Аудио #2
Идентификатор : 3
Формат : E-AC-3
Формат/Информация : Audio Coding 3
Параметр Endianness формата : Big
Идентификатор кодека : A_EAC3
Продолжительность : 1 ч. 0 м.
Вид битрейта : Постоянный
Битрейт : 256 Кбит/сек
Каналы : 6 каналов
Расположение каналов : Front: L C R, Side: L R, LFE
Частота : 48,0 КГц
Частота кадров : 187,500 кадров/сек (256 spf)
Метод сжатия : С потерями
Размер потока : 110 Мбайт (12%)
Заголовок : Original
Язык : English
Default : Нет
Forced : Нет

Текст
Идентификатор : 4
Формат : UTF-8
Идентификатор кодека : S_TEXT/UTF8
Идентификатор кодека/Информация : UTF-8 Plain Text
Продолжительность : 1 ч. 0 м.
Битрейт : 63 бит/сек
ElementCount : 980
Размер потока : 27,8 Кбайт (0%)
Заголовок : English
Язык : English
Default : Нет
Forced : Нет

pb.wtf



Скачать Касл-Рок через торрент https://i90.fastpic.ru/big/2019/1026/60/9934f3ba3fb8713dde81ebbdd7238c60.jpg Скачать фильм Касл-Рок через торрент бесплантно в хорошем качестве Описание: Джей Джей Абрамс и Стивен Кинг подготовили новый сезон нашумевшего сериала Касл-Рок, который включает в себя истории почти всех ... 10 10 2
Торрент: Зарегистрирован [2019-12-15 07:17] · скачан: 27 раз
Статус: √ проверено
Размер: 7.15 GB
Как cкачать? Как скачать Касл-Рок через торрент | UTorrent

% Раздел Тема Автор DL S | L
Зарубежные сериалы [ 6.76 GB ] Касл-Рок / Castle Rock / Сезон: 2 / Серии: 1-10 из 10 [2019 WEB-DLRip] MVO [LostFilm] bober100 Скачать
1 | 0
Зарубежные сериалы [ 6.5 GB ] Касл-Рок / Castle Rock / Сезон: 2 / Серии: 1-10 из 10 [2019 WEB-DL 720p] MVO [Novamedia] bober100 Скачать
1 | 0
Зарубежные сериалы [ 54.88 GB ] Касл-Рок / Castle Rock / Сезон: 2 / Серии: 1-10 из 10 [2019 UHD WEB-DL 2160p] 4xMVO [LostFilm AlexFilm TVShows Jaskier] bober100 Скачать
2 | 0
Зарубежные сериалы [ 10.83 GB ] Касл-Рок / Castle Rock / Сезон: 2 / Серии: 1-10 из 10 [2019 WEBRip 720p] 3xMVO [AlexFilm TVShows Jaskier] bober100 Скачать
1 | 0
Зарубежные сериалы [ 13.11 GB ] Касл-Рок / Castle Rock / Сезон: 2 / Серии: 1-10 из 10 [2019 WEBRip 1080p] MVO [Novamedia] bober100 Скачать
1 | 0
Зарубежные сериалы [ 13.76 GB ] Касл-Рок / Castle Rock / Сезон: 2 / Серии: 1-10 из 10 [2019 WEB-DL 1080p] MVO [TVShows] bober100 Скачать
2 | 0
Зарубежные сериалы [ 7.59 GB ] Касл-Рок / Castle Rock / Сезон: 2 / Серии: 1-10 из 10 [2019 WEB-DL 720p] MVO [Jaskier] bober100 Скачать
1 | 0

28-11-2019 20:33  

Отключить всю рекламу на сайте

    Дорогой пользователь! Огромная просьба, поблагодарите релизера, оцените раздачу и оставьте свои комментарий, если Вы скачали Касл-Рок через торрент бесплатно! Внесите свою лепту в развитие PiratBit!
    Комментировать посты могут только пользователи прошедшие не сложную регистрацию
    Показать сообщения:    

    Касл-Рок через торрент
    Скачать бесплатно Касл-Рок
    Касл-Рок скачать торрент
    Касл-Рок смотреть онлайн
    Cкачать фильм Касл-Рок бесплатно
    Касл-Рок скачать торрент в хорошем качестве
    Касл-Рок смотреть онлайн бесплатно в хорошем качестве


    Вы не можете начинать темы
    Вы не можете отвечать на сообщения
    Вы не можете редактировать свои сообщения
    Вы не можете удалять свои сообщения
    Вы не можете голосовать в опросах
    Вы не можете прикреплять файлы к сообщениям
    Вы можете скачивать файлы