Ссылка на приватное зеркало нашего сайта всего за 1$. Внимание количество ограничено!!!

2 сезон

iTunes

1 сезон

1

iTunes

iTunes

iTunes

1 сезон

RePack

30

ИГРА 18+

pack

ВАЖНО

!!Акция!!

Alien_RageХит недели

RePack

MK11
pack

Забери бонус

RePack

jed

!!Акция!!

Alien_Rage

RePack

fifa19

RePack

Assassins Creed: Odyssey

RePack

NEED FOR SPEED™ PAYBACK

4 сезон

9 сезон

Бесстыжие 9 сезон

Все сериалы

все сериалы на PB.wtf

RePack

FAR CRY 5
  

Джокер. Технология войны / Сезон: 4 / Серии: 1-4 из 4 (Михаил Погосов) [2019, Шпионский боевик, SATRip] pb.wtf

Джокер. Технология войны через торрент pb.wtf

Размер: 2.37 GB | Добавлен: 10 мес. назад | Торрент скачан:111 раз
Скачать  

15-12-2019 10:50 Джокер. Технология войны Скачать торрент  

Джокер 4. Технология войны
Год выпуска: 2019
Страна: Россия
Жанр: Шпионский боевик
Продолжительность: ~ 00:45:00 серия
Субтитры: отсутствуют

Режиссер: Михаил Погосов

В ролях: Дмитрий Клепацкий, Михаил Горевой, Арнис Лицитис, Евгений Березовский, Петар Зекавица, Мария Семкина, Линда Лапиньш

Описание: «Джокер. Технология войны» - финальная часть многосерийного боевика. Бизнесмен Игорь Подгорский создает программу искусственного интеллекта, способную действовать и принимать решения без участия человека. Задача ФСБ – тайно вывезти его со всей зашифрованной документацией. Сопровождая Подгорского, профессиональный снайпер и сотрудник спецслужб Джокер во время погони от преследователей получает травму головы и теряет память. Бизнесмен погибает, успев оставить фото своей дочери Сони, у которой есть зашифрованный код его уникальной разработки. Теперь Джокеру нужно найти Соню и не допустить попадания супероружия в руки врагов. Ставки высоки, как никогда – ведь на кону мировое господство…

Качество: SATRip
Формат: AVI

Видео: XviD, 720x400, ~ 1700 Кбит/с, 0.236 bit/pixel
Аудио: МР3, 48,0 КГц, 2 ch, 192 Кбит/с
скриншот  скриншот  скриншот  скриншот  скриншот  

Общее
Полное имя : D:\Джокер.S04.XviD.2019.SATRip.Kinozal-Reliz.7turza\01.Джокер.Технология.Войны.S04.XviD.2019.SATRip.Kinozal-Reliz.7turza.avi
Формат : AVI
Формат/Информация : Audio Video Interleave
Размер файла : 587 Мбайт
Продолжительность : 43 м. 7 с.
Общий поток : 1902 Кбит/сек
Название фильма : S04 E01 # from 7turza #
Программа кодирования : Lavf58.29.100

Видео
Идентификатор : 0
Формат : MPEG-4 Visual
Профиль формата : Advanced Simple@L5
Настройки формата : BVOP1
Параметр BVOP формата : 1
Параметр QPel формата : Нет
Параметр GMC формата : Без точки перехода
Параметр матрицы формата : Default (H.263)
Идентификатор кодека : XVID
Идентификатор кодека/Подсказка : XviD
Продолжительность : 43 м. 7 с.
Битрейт : 1697 Кбит/сек
Ширина : 720 пикселей
Высота : 400 пикселей
Соотношение сторон : 16:9
Частота кадров : 25,000 кадров/сек
Цветовое пространство : YUV
Субдискретизация насыщенности : 4:2:0
Битовая глубина : 8 бит
Тип развёртки : Прогрессивная
Бит/(Пиксели*Кадры) : 0.236
Размер потока : 523 Мбайт (89%)
Библиотека кодирования : XviD 67

Аудио
Идентификатор : 1
Формат : MPEG Audio
Версия формата : Version 1
Профиль формата : Layer 3
Настройки формата : Joint stereo / MS Stereo
Идентификатор кодека : 55
Идентификатор кодека/Подсказка : MP3
Продолжительность : 43 м. 7 с.
Вид битрейта : Постоянный
Битрейт : 192 Кбит/сек
Каналы : 2 канала
Частота : 48,0 КГц
Размер потока : 59,2 Мбайт (10%)
Выравнивание : Соединение по промежуткам
Продолжительность промежутка : 24 мс. (0,60 видеокадр)

Внимание! Раздача ведётся путём добавления новых серий; при каждом добавлении создаётся новый торрент.
Чтобы начать докачку новой серии, пользователям необходимо сделать следующее:
1. Остановить скачивание;
2. Удалить старый торрент у себя из клиента (старые серии удалять не надо);
3. Скачать новый торрент и запустить его у себя в клиенте вместо старого, при этом указать клиенту путь в старую папку куда и должно происходить скачивание новых серий. Ваш клиент при этом должен произвести хеширование (проверку) старой папки и будет докачивать только те серии, которых у вас ещё нет. Старые серии при этом не удаляются, а продолжают раздаваться! Eсли вы уже удалили старые серии, то предотвратить повторную закачку старых серий можно, отжав галочку в соответствующих местах при запуске нового торрента.
pb.wtf



Скачать Джокер. Технология войны через торрент https://b.radikal.ru/b33/1912/57/496e5d0ea7e6.jpg Скачать фильм Джокер. Технология войны через торрент бесплантно в хорошем качестве Описание: «Джокер. Технология войны» - финальная часть многосерийного боевика. Бизнесмен Игорь Подгорский создает программу искусственного ... 9.9 10 9
Торрент: Зарегистрирован [2019-12-15 13:17] · скачан: 111 раз
Статус: √ проверено
Размер: 2.37 GB
Как cкачать? Как скачать Джокер. Технология войны через торрент | qTorrent

28-11-2019 20:33  

Отключить всю рекламу на сайте

    Дорогой пользователь! Огромная просьба, поблагодарите релизера, оцените раздачу и оставьте свои комментарий, если Вы скачали Джокер. Технология войны через торрент бесплатно! Внесите свою лепту в развитие PiratBit!
    Комментировать посты могут только пользователи прошедшие не сложную регистрацию
    Показать сообщения:    

    Джокер. Технология войны через торрент
    Скачать бесплатно Джокер. Технология войны
    Джокер. Технология войны скачать торрент
    Джокер. Технология войны смотреть онлайн
    Cкачать фильм Джокер. Технология войны бесплатно
    Джокер. Технология войны скачать торрент в хорошем качестве
    Джокер. Технология войны смотреть онлайн бесплатно в хорошем качестве


    Вы не можете начинать темы
    Вы не можете отвечать на сообщения
    Вы не можете редактировать свои сообщения
    Вы не можете удалять свои сообщения
    Вы не можете голосовать в опросах
    Вы не можете прикреплять файлы к сообщениям
    Вы можете скачивать файлы