2 сезон

iTunes

MVO

1

2 сезон

iTunes

iTunes

1 сезон

RePack

30

Ultimate

ВАЖНО

ИГРА 18+

pack

RePack

MK11
pack

Легкие деньги

RePack

jed

RePack

fifa19

RePack

RDR2

RePack

NEED FOR SPEED™ PAYBACK

4 сезон

9 сезон

Бесстыжие 9 сезон

Все сериалы

все сериалы на PB.wtf

RePack

FAR CRY 5

Anonymous, доброй ночи, мы не успеваем собрать деньги на оплату серверов за декабрь и январь, помогите нам пожалуйста в это трудное время. В качестве благодарности мы отключим Вам всю рекламу на сайте (укажите свой ник в строку Ваше имя)!

×
  
Magnet ссылка

Гори, гори ясно / Brightburn (Дэвид Яровески) [2019, ужасы, фантастика, BDRip 1080p, 60 fps] DUB (rus, ukr) [iTunes] pb.wtf

Гори, гори ясно через торрент pb.wtf

Размер: 10.38 GB | Добавлен: 1 год 1 мес. назад | Торрент скачан:51 раз
Скачать  

15-12-2019 14:07 Гори, гори ясно Скачать торрент  

Гори, гори ясно / Brightburn
««Imagine What He Could Become»»

Год выпуска: 2019
Страна: США
Жанр: ужасы, фантастика
Продолжительность: 01:30:29
Перевод: Дублированный | iTunes
Субтитры: Русские, Украинские, английские
Режиссер: Дэвид Яровески
В ролях:

Элизабет Бэнкс (Tori Breyer), Дэвид Денман (Kyle Breyer), Джексон А. Данн (Brandon Breyer), Абрахам Клинкскейлз (Royce), Кристиан Финлейсон (Fauxhawk), Дженнифер Холлэнд (Ms. Espenschied), Эмми Хантер (Caitlyn), Мэтт Джонс (Noah McNichol), Мередит Хагнер (Merilee McNichol), Бекки Уолстром (Erica), Терренс Розмор (P.E. Teacher), Грегори Алан Уильямс (Sheriff Deever)
Описание:
Семейная пара фермеров Тори и Кайл уже долго и безуспешно пытаются завести ребёнка, когда вдруг из космоса в близлежащий лес падает капсула с младенцем. Пара усыновляет малыша и растит его как своего собственного сына. Брэндон растёт послушным, хорошо учится в школе и никогда не болеет. Но по достижении 12 лет характер мальчика резко меняется - он начинает дерзить родителям, и в нём просыпаются незнакомые доселе желания и способности.
Рейтинг:

Качество: BDRip 1080p
Формат: MKV
Видео: AVC | 1920 x 800 | 59.940 fps | 15.0 Мбит/сек
Аудио #1: AC-3 | 5.1 | 48 kHz | 384 Кбит/сек | 16 bit | Дубляж (iTunes) | RUS |
Аудио #2: AC-3 | 5.1 | 48 kHz | 384 Кбит/сек | 16 bit | Дубляж (iTunes) | UKR |
Аудио #3: AC-3 | 5.1 | 48 kHz | 640 Кбит/сек | 16 bit | Оригинал | ENG |
Навигация по главам: есть

General
Unique ID : 153587832343465203070147950390904379716 (0x738BF0C7411F433F5EFD782A55745944)
Complete name : D:\2019 Гори, гори ясно BDRip 1080p 60 fps.mkv
Format : Matroska
Format version : Version 4 / Version 2
File size : 10.4 GiB
Duration : 1h 30mn
Overall bit rate : 16.4 Mbps
Movie name : Гори, гори ясно / Brightburn
Encoded date : UTC 2019-08-17 09:46:28
Writing application : mkvmerge v22.0.0 ('At The End Of The World') 64-bit
Writing library : libebml v1.3.5 + libmatroska v1.4.8
DURATION : 01:27:25.078000000
NUMBER_OF_FRAMES : 1036
NUMBER_OF_BYTES : 28864
_STATISTICS_WRITING_APP : mkvmerge v22.0.0 ('At The End Of The World') 64-bit
_STATISTICS_WRITING_DATE_UTC : 2019-08-17 09:46:28
_STATISTICS_TAGS : BPS DURATION NUMBER_OF_FRAMES NUMBER_OF_BYTES
Video #1
ID : 1
Format : AVC
Format/Info : Advanced Video Codec
Format profile : High@L4.1
Format settings, CABAC : Yes
Format settings, ReFrames : 5 frames
Codec ID : V_MPEG4/ISO/AVC
Duration : 1h 30mn
Bit rate : 15.0 Mbps
Width : 1 920 pixels
Height : 800 pixels
Display aspect ratio : 2.40:1
Frame rate : 59.940 fps
Color space : YUV
Chroma subsampling : 4:2:0
Bit depth : 8 bits
Scan type : Progressive
Bits/(Pixel*Frame) : 0.163
Stream size : 9.28 GiB (89%)
Writing library : x264 core 146 r2538 121396c
Encoding settings : cabac=1 / ref=5 / deblock=1:0:0 / analyse=0x3:0x113 / me=umh / subme=9 / psy=1 / psy_rd=1.00:0.25 / mixed_ref=1 / me_range=32 / chroma_me=1 / trellis=2 / 8x8dct=1 / cqm=0 / deadzone=6,6 / fast_pskip=1 / chroma_qp_offset=-4 / threads=12 / lookahead_threads=2 / sliced_threads=0 / nr=0 / decimate=0 / interlaced=0 / bluray_compat=0 / constrained_intra=0 / bframes=8 / b_pyramid=2 / b_adapt=2 / b_bias=0 / direct=3 / weightb=1 / open_gop=0 / weightp=2 / keyint=600 / keyint_min=60 / scenecut=40 / intra_refresh=0 / rc_lookahead=60 / rc=2pass / mbtree=1 / bitrate=15000 / ratetol=1.0 / qcomp=0.80 / qpmin=0 / qpmax=69 / qpstep=4 / cplxblur=20.0 / qblur=0.5 / vbv_maxrate=50000 / vbv_bufsize=50000 / nal_hrd=none / filler=0 / ip_ratio=1.10 / aq=1:0.50
Language : English
Default : Yes
Forced : No
DURATION : 01:30:30.359000000
NUMBER_OF_FRAMES : 325496
NUMBER_OF_BYTES : 10181369992
_STATISTICS_WRITING_APP : mkvmerge v22.0.0 ('At The End Of The World') 64-bit
_STATISTICS_WRITING_DATE_UTC : 2019-08-17 09:46:28
_STATISTICS_TAGS : BPS DURATION NUMBER_OF_FRAMES NUMBER_OF_BYTES
Audio #2
ID : 2
Format : AC-3
Format/Info : Audio Coding 3
Mode extension : CM (complete main)
Format settings, Endianness : Big
Codec ID : A_AC3
Duration : 1h 30mn
Bit rate mode : Constant
Bit rate : 384 Kbps
Channel(s) : 6 channels
Channel positions : Front: L C R, Side: L R, LFE
Sampling rate : 48.0 KHz
Bit depth : 16 bits
Compression mode : Lossy
Stream size : 249 MiB (2%)
Title : Дубляж [iTunes Russia]
Language : Russian
Default : Yes
Forced : Yes
Audio #3
ID : 3
Format : AC-3
Format/Info : Audio Coding 3
Mode extension : CM (complete main)
Format settings, Endianness : Big
Codec ID : A_AC3
Duration : 1h 30mn
Bit rate mode : Constant
Bit rate : 384 Kbps
Channel(s) : 6 channels
Channel positions : Front: L C R, Side: L R, LFE
Sampling rate : 48.0 KHz
Bit depth : 16 bits
Compression mode : Lossy
Stream size : 249 MiB (2%)
Title : Дубляж [iTunes Ukrainian]
Language : Ukrainian
Default : No
Forced : No
Audio #4
ID : 4
Format : AC-3
Format/Info : Audio Coding 3
Mode extension : CM (complete main)
Format settings, Endianness : Big
Codec ID : A_AC3
Duration : 1h 30mn
Bit rate mode : Constant
Bit rate : 640 Kbps
Channel(s) : 6 channels
Channel positions : Front: L C R, Side: L R, LFE
Sampling rate : 48.0 KHz
Bit depth : 16 bits
Compression mode : Lossy
Stream size : 414 MiB (4%)
Title : Original
Language : English
Default : No
Forced : No
Text #5
ID : 5
Format : UTF-8
Codec ID : S_TEXT/UTF8
Codec ID/Info : UTF-8 Plain Text
Title : Forced [iTunes Russia]
Language : Russian
Default : Yes
Forced : Yes
Text #6
ID : 6
Format : UTF-8
Codec ID : S_TEXT/UTF8
Codec ID/Info : UTF-8 Plain Text
Title : Full [iTunes Russia]
Language : Russian
Default : No
Forced : No
Text #7
ID : 7
Format : UTF-8
Codec ID : S_TEXT/UTF8
Codec ID/Info : UTF-8 Plain Text
Title : Full [iTunes Ukrainian]
Language : Ukrainian
Default : No
Forced : No
Text #8
ID : 8
Format : UTF-8
Codec ID : S_TEXT/UTF8
Codec ID/Info : UTF-8 Plain Text
Title : Full
Language : English
Default : No
Forced : No
Menu
00:00:00.000 : :绗?01 绔?
00:03:20.700 : :绗?02 绔?
00:07:04.633 : :绗?03 绔?
00:12:30.792 : :绗?04 绔?
00:17:47.066 : :绗?05 绔?
00:24:23.170 : :绗?06 绔?
00:30:28.910 : :绗?07 绔?
00:38:06.784 : :绗?08 绔?
00:43:11.672 : :绗?09 绔?
00:49:25.796 : :绗?10 绔?
00:56:53.535 : :绗?11 绔?
01:00:12.359 : :绗?12 绔?
01:05:22.127 : :绗?13 绔?
01:08:16.092 : :绗?14 绔?
01:12:20.586 : :绗?15 绔?
01:17:28.894 : :绗?16 绔?
pb.wtf



Скачать Гори, гори ясно через торрент https://d.radikal.ru/d40/1912/09/c35ab6a83f67.png Скачать фильм Гори, гори ясно через торрент бесплантно в хорошем качестве Описание: Семейная пара фермеров Тори и Кайл уже долго и безуспешно пытаются завести ребёнка, когда вдруг из космоса в близлежащий лес ... 4.2 10 5
Торрент: Зарегистрирован [2019-12-15 14:07] · скачан: 51 раз
Статус: √ проверено
Размер: 10.38 GB
Как cкачать? Как скачать Гори, гори ясно через торрент | UTorrent

% Раздел Тема Автор DL S | L
Ultra HD (UHD: 2K, 4K, 8K) — видео сверхвысокой чёткости [ 50.87 GB ] Гори гори ясно / Brightburn [2019 UHD Blu-Ray EUR 2160p] DUB [] bober100 Скачать
1 | 0
Фильмы [HD 720p, 1080p] (Хороший звук DUB, MVO) [ 9.77 GB ] Гори гори ясно / Brightburn [2019 BDRip 1080p] DUB [] +MVO [СВ Студия] bober100 Скачать
1 | 0
Фильмы 2019-2020 [DVDrip, WEB-DLRip, HDrip] (DUB, MVO) [ 1.46 GB ] Гори гори ясно / Brightburn [2019 BDRip] - [] Twi7ter Скачать
10 | 0
Фильмы [HD 720p, 1080p] (Хороший звук DUB, MVO) [ 4.34 GB ] Гори гори ясно / Brightburn [2019 BDRip 720p] DUB [] +MVO [СВ Студия] bober100 Скачать
1 | 0
Ultra HD (UHD: 2K, 4K, 8K) — видео сверхвысокой чёткости [ 40.17 GB ] Гори гори ясно / Brightburn [2019 UHD BDRemux 2160p] DUB [] + MVO [СВ Студия] sheker187 Скачать
1 | 0
Фильмы (WEB-DL 720p, 1080p) [ 3.33 GB ] Гори гори ясно / Brightburn [2019 WEB-DL 1080p] +MVO [СВ Студия] bober100 Скачать
2 | 0
Фильмы (WEB-DL 720p, 1080p) [ 2.22 GB ] Гори гори ясно / Brightburn [2019 WEB-DL 720p] bober100 Скачать
1 | 0

28-11-2019 20:33  

Отключить всю рекламу на сайте

17-12-2019 08:26 Гори, гори ясно Скачать торрент  

На разок глянуть можноpb.wtf



    Дорогой пользователь! Огромная просьба, поблагодарите релизера, оцените раздачу и оставьте свои комментарий, если Вы скачали Гори, гори ясно через торрент бесплатно! Внесите свою лепту в развитие PiratBit!
    Комментировать посты могут только пользователи прошедшие не сложную регистрацию
    Показать сообщения:    

    Гори, гори ясно через торрент
    Скачать бесплатно Гори, гори ясно
    Гори, гори ясно скачать торрент
    Гори, гори ясно смотреть онлайн
    Cкачать фильм Гори, гори ясно бесплатно
    Гори, гори ясно скачать торрент в хорошем качестве
    Гори, гори ясно смотреть онлайн бесплатно в хорошем качестве


    Вы не можете начинать темы
    Вы не можете отвечать на сообщения
    Вы не можете редактировать свои сообщения
    Вы не можете удалять свои сообщения
    Вы не можете голосовать в опросах
    Вы не можете прикреплять файлы к сообщениям
    Вы можете скачивать файлы