Ссылка на приватное зеркало нашего сайта всего за 1$. Внимание количество ограничено!!!

2 сезон

iTunes

1 сезон

1

iTunes

iTunes

iTunes

1 сезон

RePack

30

ИГРА 18+

pack

ВАЖНО

!!Акция!!

Alien_RageХит недели

RePack

MK11
pack

Забери бонус

RePack

jed

!!Акция!!

Alien_Rage

RePack

fifa19

RePack

Assassins Creed: Odyssey

RePack

NEED FOR SPEED™ PAYBACK

4 сезон

9 сезон

Бесстыжие 9 сезон

Все сериалы

все сериалы на PB.wtf

RePack

FAR CRY 5
  

Некрасивая подружка / Серии: 1-4 из 4 (Владимир Янковский) [2019, Детектив, WEB-DLRip] pb.wtf

Некрасивая подружка через торрент pb.wtf

Раздают: 1 [ 0 KB/s ]
Размер: 2.55 GB | Добавлен: 10 мес. назад | Торрент скачан:70 раз
Скачать  

15-12-2019 18:56 Некрасивая подружка Скачать торрент  

Некрасивая подружка
Год выпуска: 2019
Страна: Россия
Жанр: Детектив
Продолжительность: ~ 00:50:00 серия
Субтитры: отсутствуют

Режиссер: Владимир Янковский



В ролях: Елена Муравьёва, Николай Иванов (II), Олеся Фаттахова, Сергей Губанов, Игорь Сигов, Ольга Бурлакова, Ольга Дятловская, Руслан Чернецкий, Ирина Нарбекова, Евгений Казакевич, Татьяна Фёдорова (II), Александра Гайдук, Алёна Козырева, Валерий Кащеев, Игорь Петров (II), Анатолий Борискевич, Алина Айвори, Денис Жданюк, Екатерина Фокина, Даша Отрошко, Андрей Денисеня, Кирилл Журковский, Виктор Рудько, Ольга Борискевич, Вячеслав Барсуков, Евгений Басалай, Вероника Жила, Андрей Мельников (II), Сергей Интигринов, Ольга Голубева, Даниил Жданько, Анастасия Гарбузова

Описание: Природа наградила Тоню феноменальными мозгами, а с внешностью решила не заморачиваться. К тридцати пяти годам она смирилась с полным отсутствием мужского интереса и всю свою энергию тратит на работу. Работа у Тони интересная – она следователь. Убийство рекламного дизайнера на первый взгляд кажется простым делом: все улики указывают на его любовницу Риту. Однако Тоне не дают покоя некоторые детали, не вписывающиеся в картину. Она разрабатывает альтернативные версии. Следы ведут в клинику пластической хирургии, где работает её подруга – красавица Светлана. Как раз в этот момент у Светы начинается головокружительный роман с директором клиники Александром Барышниковым. За плечами Александра – три романа, закончившиеся трагически. Тоне не нравятся такие совпадения, а ещё больше то, что убитый дизайнер незадолго до смерти, как выясняется, поссорился с Барышниковым.

Качество: WEB-DLRip
Формат: AVI

Видео: XviD, ~ 1600 Кбит/с, 720x400
Аудио: AC3, 2 ch, 192 Кбит/с
скриншот  скриншот  скриншот  скриншот  

General
Complete name : H:\fiiles x\Некрасивая подружка.2019.WEB-DLRip.Files-x\01. Некрасивая подружка.2019.WEB-DLRip.Files-x.avi
Format : AVI
Format/Info : Audio Video Interleave
File size : 643 MiB
Duration : 49mn 52s
Overall bit rate : 1 802 Kbps
Writing application : VirtualDubMod 1.5.10.3 | www.virtualdub-fr.org || (build 2550/release)
Writing library : VirtualDubMod build 2550/release

Video
ID : 0
Format : MPEG-4 Visual
Format profile : Advanced Simple@L5
Format settings, BVOP : 1
Format settings, QPel : No
Format settings, GMC : No warppoints
Format settings, Matrix : Custom
Codec ID : XVID
Codec ID/Hint : XviD
Duration : 49mn 52s
Bit rate : 1 600 Kbps
Width : 720 pixels
Height : 400 pixels
Display aspect ratio : 16:9
Frame rate : 25.000 fps
Color space : YUV
Chroma subsampling : 4:2:0
Bit depth : 8 bits
Scan type : Progressive
Compression mode : Lossy
Bits/(Pixel*Frame) : 0.222
Stream size : 571 MiB (89%)
Writing library : XviD 73

Audio
ID : 1
Format : AC-3
Format/Info : Audio Coding 3
Mode extension : CM (complete main)
Codec ID : 2000
Duration : 49mn 52s
Bit rate mode : Constant
Bit rate : 192 Kbps
Channel(s) : 2 channels
Channel positions : Front: L R
Sampling rate : 48.0 KHz
Bit depth : 16 bits
Compression mode : Lossy
Stream size : 68.5 MiB (11%)
Alignment : Split accross interleaves
Interleave, duration : 40 ms (1.00 video frame)
Interleave, preload duration : 500 ms

pb.wtf



Скачать Некрасивая подружка через торрент https://b.radikal.ru/b09/1912/0e/0a3934dd0eed.jpg Скачать фильм Некрасивая подружка через торрент бесплантно в хорошем качестве Описание: Природа наградила Тоню феноменальными мозгами, а с внешностью решила не заморачиваться. К тридцати пяти годам она смирилась с ... 10 10 5
Торрент: Зарегистрирован [2019-12-15 18:56] · скачан: 70 раз
Статус: √ проверено
Размер: 2.55 GB
Как cкачать? Как скачать Некрасивая подружка через торрент | qTorrent

% Раздел Тема Автор DL S | L
Наши сериалы [ 2.38 GB ] Некрасивая подружка / Серии: 1-4 из 4 [2019 SATRip-AVC] aleksan55 Скачать
1 | 0
Наши сериалы [ 2.66 GB ] Некрасивая подружка / Серии: 1-4 из 4 [2019 SATRip] bober100 Скачать
1 | 0

28-11-2019 20:33  

Отключить всю рекламу на сайте

    Дорогой пользователь! Огромная просьба, поблагодарите релизера, оцените раздачу и оставьте свои комментарий, если Вы скачали Некрасивая подружка через торрент бесплатно! Внесите свою лепту в развитие PiratBit!
    Комментировать посты могут только пользователи прошедшие не сложную регистрацию
    Показать сообщения:    

    Некрасивая подружка через торрент
    Скачать бесплатно Некрасивая подружка
    Некрасивая подружка скачать торрент
    Некрасивая подружка смотреть онлайн
    Cкачать фильм Некрасивая подружка бесплатно
    Некрасивая подружка скачать торрент в хорошем качестве
    Некрасивая подружка смотреть онлайн бесплатно в хорошем качестве


    Вы не можете начинать темы
    Вы не можете отвечать на сообщения
    Вы не можете редактировать свои сообщения
    Вы не можете удалять свои сообщения
    Вы не можете голосовать в опросах
    Вы не можете прикреплять файлы к сообщениям
    Вы можете скачивать файлы