Ссылка на приватное зеркало нашего сайта всего за 1$. Внимание количество ограничено!!!

2 сезон

iTunes

1 сезон

1

iTunes

iTunes

iTunes

1 сезон

RePack

30

ИГРА 18+

pack

ВАЖНО

!!Акция!!

Alien_RageХит недели

RePack

MK11
pack

Забери бонус

RePack

jed

!!Акция!!

Alien_Rage

RePack

fifa19

RePack

Assassins Creed: Odyssey

RePack

NEED FOR SPEED™ PAYBACK

4 сезон

9 сезон

Бесстыжие 9 сезон

Все сериалы

все сериалы на PB.wtf

RePack

FAR CRY 5
  

Нюхач / Сезон: 4 / Серии: 1-8 из 8 (Артем Литвиненко, Антон Щербаков) [2019, Детектив, HDTV 1080i] pb.wtf

Нюхач через торрент pb.wtf

Раздают: 1 [ 12 KB/s ]
Размер: 16.95 GB | Добавлен: 10 мес. назад | Торрент скачан:126 раз
Скачать  

16-12-2019 17:00 Нюхач Скачать торрент  

Нюхач
Год выпуска: 2019
Страна: Украина
Жанр: Детектив
Продолжительность: ~ 00:50:00 серия
Перевод: Не требуется
Субтитры: отсутствуют

Режиссер: Артем Литвиненко, Антон Щербаков

rating

В ролях: Кирилл Кяро, Иван Оганесян, Николай Чиндяйкин, Мария Аниканова, Агне Грудите, Нина Гогаева, Евгений Черников, Артём Позняк, Дарья Орехова

Описание: Его зовут Нюхач, он обладает сверхчувствительным обонянием. Для него не существует тайн и безнадежных преступлений, ведь в первую же минуту знакомства он готов рассказать о любом человеке абсолютно все. Но у этого дара есть и обратная сторона: Нюхач абсолютно беззащитен перед окружающим миром. Он не умеет строить отношения с людьми. Ему невозможно сделать сюрприз, его нельзя обмануть, любой посторонний запах оттолкнет его от самого романтического свидания...
В новом сезоне Нюхач, параллельно с расследованием самых запутанных преступлений, погрузится в собственное прошлое, в котором есть свои "скелеты". А в жизнях Виктора, Ирины, Юлии и Тани произойдут неожиданные перемены...

Качество: HDTV 1080i
Формат: TS

Видео: MPEG-TS AVC, ~ 5300 Кбит/с, 1920x1080, 25 кадр/с
Аудио#1: Русский (AC3, 6 ch, 384 Кбит/с)
Аудио#2: Русский (MP2, 2 ch, 192 Кбит/с)
скриншот  скриншот  скриншот  скриншот  

Общее
Идентификатор : 1 (0x1)
Полное имя : D:ЗаписьNyuhach-4.HDTV(1080i).GeneralFilm1.Nyuhach-4.HDTV(1080i).GeneralFilm.ts
Формат : MPEG-TS
Размер файла : 2,20 Гбайт
Продолжительность : 50 м.
Режим общего битрейта : Переменный
Общий поток : 6297 Кбит/сек

Видео
Идентификатор : 1904 (0x770)
Идентификатор меню : 80 (0x50)
Формат : AVC
Формат/Информация : Advanced Video Codec
Профиль формата : High@L4.0
Параметр CABAC формата : Да
Параметр ReFrames формата : 3 кадра
Параметр GOP формата : M=4, N=32
Идентификатор кодека : 27
Продолжительность : 50 м.
Битрейт : 5404 Кбит/сек
Ширина : 1920 пикселей
Высота : 1080 пикселей
Соотношение сторон : 16:9
Частота кадров : 25,000 кадров/сек
Стандарт вещания : Component
Цветовое пространство : YUV
Субдискретизация насыщенности : 4:2:0
Битовая глубина : 8 бит
Тип развёртки : Чересстрочная
Порядок развёртки : Верхнее поле первое
Бит/(Пиксели*Кадры) : 0.104
Размер потока : 1,89 Гбайт (86%)
Основные цвета : BT.709
Характеристики трансфера : BT.709
Коэффициенты матрицы : BT.709

Аудио #1
Идентификатор : 2904 (0xB58)
Идентификатор меню : 80 (0x50)
Формат : AC-3
Формат/Информация : Audio Coding 3
Расширение режима : CM (complete main)
Параметр Endianness формата : Big
Идентификатор кодека : 6
Продолжительность : 50 м.
Вид битрейта : Постоянный
Битрейт : 384 Кбит/сек
Каналы : 6 каналов
Расположение каналов : Front: L C R, Side: L R, LFE
Частота : 48,0 КГц
Битовая глубина : 16 бит
Метод сжатия : С потерями
Задержка видео : -120 мс.
Размер потока : 137 Мбайт (6%)
Язык : Russian

Аудио #2
Идентификатор : 2905 (0xB59)
Идентификатор меню : 80 (0x50)
Формат : MPEG Audio
Версия формата : Version 1
Профиль формата : Layer 2
Идентификатор кодека : 3
Продолжительность : 50 м.
Вид битрейта : Постоянный
Битрейт : 192 Кбит/сек
Каналы : 2 канала
Частота : 48,0 КГц
Метод сжатия : С потерями
Задержка видео : -120 мс.
Размер потока : 68,7 Мбайт (3%)
Язык : Russian

Раздача ведётся путём добавления новых серий, при каждом добавлении создаётся новый торрент. Чтобы начать докачку новой серии, пользователям необходимо сделать следующее:

- Остановить скачивание.
- Удалить старый торрент у себя из клиента (старые серии удалять не надо).
- Скачать новый торрент и запустить его у себя в клиенте вместо старого, при этом указать клиенту путь в старую папку куда и должно происходить скачивание новых серий.

Ваш клиент при этом должен произвести хеширование (проверку) старой папки (если не производит сам - помогите ему сделать это), и будет докачивать только те серии которых у вас ещё нет. Старые серии при этом не удаляются, а продолжают раздаваться!
Если вы уже удалили старые серии, то предотвратить повторную закачку старых серий можно, отжав галочку в соответствующих местах при запуске нового торрента. По возможности, желательно не удалять старые серии как можно дольше, чтобы релизер не столько продолжал раздавать старые серии, а смог сконцентрироваться на новых.
pb.wtf



Скачать Нюхач через торрент http://s018.radikal.ru/i515/1709/73/ae93ea422028.jpg Скачать фильм Нюхач через торрент бесплантно в хорошем качестве Описание: Его зовут Нюхач, он обладает сверхчувствительным обонянием. Для него не существует тайн и безнадежных преступлений, ведь в первую ... 9.8 10 8
Торрент: Зарегистрирован [2019-12-19 18:10] · скачан: 126 раз
Статус: √ проверено
Размер: 16.95 GB
Как cкачать? Как скачать Нюхач через торрент | qTorrent

% Раздел Тема Автор DL S | L
Наши сериалы [ 4.71 GB ] Нюхач / Сезон: 4 / Серии: 1-8 из 8 [2019 SATRip-AVC] aleksan55 Скачать
1 | 0
Наши сериалы [ 6.1 GB ] Нюхач / Сезон: 4 / Серии: 1-8 из 8 [2019 HDTVRip-AVC] bober100 Скачать
1 | 0
Наши сериалы [ 10.27 GB ] Нюхач / Сезон: 4 / Серии: 1-8 из 8 [2019 HDTVRip 720p] bober100 Скачать
2 | 0
Наши сериалы [ 5.01 GB ] Нюхач / Сезон: 4 / Серии: 1-8 из 8 [2019 HDTVRip] bober100 Скачать
2 | 0
Наши сериалы [ 4.69 GB ] Нюхач / Сезон: 4 / Серии: 1-8 из 8 [2019 SATRip] bober100 Скачать
2 | 0

28-11-2019 20:33  

Отключить всю рекламу на сайте

    Дорогой пользователь! Огромная просьба, поблагодарите релизера, оцените раздачу и оставьте свои комментарий, если Вы скачали Нюхач через торрент бесплатно! Внесите свою лепту в развитие PiratBit!
    Комментировать посты могут только пользователи прошедшие не сложную регистрацию
    Показать сообщения:    

    Нюхач через торрент
    Скачать бесплатно Нюхач
    Нюхач скачать торрент
    Нюхач смотреть онлайн
    Cкачать фильм Нюхач бесплатно
    Нюхач скачать торрент в хорошем качестве
    Нюхач смотреть онлайн бесплатно в хорошем качестве


    Вы не можете начинать темы
    Вы не можете отвечать на сообщения
    Вы не можете редактировать свои сообщения
    Вы не можете удалять свои сообщения
    Вы не можете голосовать в опросах
    Вы не можете прикреплять файлы к сообщениям
    Вы можете скачивать файлы