2 сезон

iTunes

MVO

1

2 сезон

iTunes

iTunes

1 сезон

RePack

30

Ultimate

ВАЖНО

ИГРА 18+

pack

RePack

MK11
pack

Легкие деньги

RePack

jed

RePack

fifa19

RePack

RDR2

RePack

NEED FOR SPEED™ PAYBACK

4 сезон

9 сезон

Бесстыжие 9 сезон

Все сериалы

все сериалы на PB.wtf

RePack

FAR CRY 5

Anonymous, доброе утро, мы не успеваем собрать деньги на оплату серверов за декабрь и январь, помогите нам пожалуйста в это трудное время. В качестве благодарности мы отключим Вам всю рекламу на сайте (укажите свой ник в строку Ваше имя)!

×
  
Magnet ссылка

Остров / The Island (Майкл Бэй) [2005, фантастика, BDRip - HEVC 1080p 10 bit 60 FPS] Дубляж pb.wtf

Остров через торрент pb.wtf

Размер: 4.91 GB | Добавлен: 1 год 1 мес. назад | Торрент скачан:122 раза
Скачать  

16-12-2019 17:16 Остров Скачать торрент  

Остров / The Island
««Вы были избраны»»

Год выпуска: 2005
Страна: США
Жанр: фантастика,
Продолжительность: 02:16:04
Перевод: Дубляж
Субтитры: русские (Full).
Режиссер: Майкл Бэй
В ролях:

Юэн Макгрегор (Lincoln Six Echo / Tom Lincoln), Скарлетт Йоханссон (Jordan Two Delta / Sarah Jordan), Джимон Хонсу (Albert Laurent), Шон Бин (Dr. Bernard Merrick), Стив Бушеми (James McCord), Майкл Кларк Дункан (Starkweather Two Delta / Jamal Starkweather), Итэн Филлипс (Jones Three Echo), Брайан Степанек (Gandu Three Echo), Ноа Тишби (Community Announcer), Шиван Флинн (Lima One Alpha), Трой Бленелл (Laurent Team Member), Джейми МакБрайд (Laurent Team Member)
Описание:
Линкольн Шесть-Эхо - житель на вид утопического, но охраняемого поселения середины XXI века. Как и все обитатели этого тщательно контролируемого пространства, Линкольн надеется оказаться среди тех, кого отправят на «Остров» - якобы последнее незагрязненное место на планете. Но очень скоро Линкольн обнаруживает, что абсолютно всё, что касается его существования - ложь.
Мировая премьера: 11 июля 2005

Качество: BDRip 1080p Rip DD2D3
Исходник: BDRemux WiKi
Формат: MKV
Видео: V_MPEGH/ISO/HEVC, 1920x800 (2.40:1), 4520 kbps, 59,940 fps, 0,049 bpp
Аудио №1: русский / AC3 / 5.1 / 48 kHz / 640 kbps / ||


General
Unique ID : 213335957472257525586500923668886425919 (0xA07F02C871B0A43D830643649997913F)
Complete name : D:\Остров - The Island (2005) BDRip - HEVC 1080p 10 bit 60 FPS.mkv
Format : Matroska
Format version : Version 4
File size : 4.91 GiB
Duration : 2 h 16 min
Overall bit rate : 5 164 kb/s
Movie name : Rip by DD2D3
Encoded date : UTC 2019-12-16 17:00:32
Writing application : mkvmerge v10.0.0 ('To Drown In You') 32bit
Writing library : libebml v1.3.4 + libmatroska v1.4.5
Attachments : poster

Video
ID : 1
Format : HEVC
Format/Info : High Efficiency Video Coding
Format profile : Main 10@L4.1@Main
Codec ID : V_MPEGH/ISO/HEVC
Duration : 2 h 16 min
Bit rate : 4 520 kb/s
Width : 1 920 pixels
Height : 800 pixels
Display aspect ratio : 2.40:1
Frame rate mode : Constant
Frame rate : 59.940 (60000/1001) FPS
Color space : YUV
Chroma subsampling : 4:2:0
Bit depth : 10 bits
Bits/(Pixel*Frame) : 0.049
Stream size : 4.30 GiB (88%)
Writing library : x265 2.3+33-0b7d54dbb71a87a0:[Windows][MSVC 1800][64 bit] 10bit: KG7x [x265.ru]
Encoding settings : cpuid=1173503 / frame-threads=2 / numa-pools=4 / wpp / no-pmode / no-pme / no-psnr / no-ssim / log-level=2 / input-csp=1 / input-res=1920x800 / interlace=0 / total-frames=489356 / level-idc=41 / high-tier=1 / uhd-bd=0 / ref=3 / no-allow-non-conformance / no-repeat-headers / annexb / no-aud / no-hrd / info / hash=0 / no-temporal-layers / open-gop / min-keyint=25 / keyint=250 / bframes=4 / b-adapt=2 / b-pyramid / bframe-bias=0 / rc-lookahead=20 / lookahead-slices=5 / scenecut=40 / no-intra-refresh / ctu=64 / min-cu-size=8 / no-rect / no-amp / max-tu-size=32 / tu-inter-depth=1 / tu-intra-depth=1 / limit-tu=0 / rdoq-level=0 / dynamic-rd=0.00 / no-ssim-rd / signhide / no-tskip / nr-intra=0 / nr-inter=0 / no-constrained-intra / strong-intra-smoothing / max-merge=2 / limit-refs=3 / no-limit-modes / me=1 / subme=2 / merange=57 / temporal-mvp / weightp / no-weightb / no-analyze-src-pics / deblock=0:0 / no-sao / no-sao-non-deblock / rd=3 / no-early-skip / no-rskip / no-fast-intra / no-tskip-fast / no-cu-lossless / no-b-intra / rdpenalty=0 / psy-rd=4.00 / psy-rdoq=0.00 / no-rd-refine / analysis-mode=0 / no-lossless / cbqpoffs=0 / crqpoffs=0 / rc=abr / bitrate=4500 / qcomp=0.60 / qpstep=1 / stats-write=0 / stats-read=2 / cplxblur=20.0 / qblur=0.5 / ipratio=1.10 / pbratio=1.00 / aq-mode=0 / aq-strength=0.00 / no-cutree / zone-count=0 / no-strict-cbr / qg-size=64 / rc-grain / qpmax=69 / qpmin=0 / sar=1 / overscan=0 / videoformat=5 / range=0 / colorprim=2 / transfer=2 / colormatrix=2 / chromaloc=0 / display-window=0 / max-cll=0,0 / min-luma=0 / max-luma=1023 / log2-max-poc-lsb=8 / vui-timing-info / vui-hrd-info / slices=1 / opt-qp-pps / opt-ref-list-length-pps / no-multi-pass-opt-rps / scenecut-bias=0.05 / no-opt-cu-delta-qp / no-aq-motion / no-hdr / no-hdr-opt / refine-level=5 / no-limit-sao
Default : Yes
Forced : No

Audio
ID : 2
Format : AC-3
Format/Info : Audio Coding 3
Commercial name : Dolby Digital
Codec ID : A_AC3
Duration : 2 h 16 min
Bit rate mode : Constant
Bit rate : 640 kb/s
Channel(s) : 6 channels
Channel layout : L R C LFE Ls Rs
Sampling rate : 48.0 kHz
Frame rate : 31.250 FPS (1536 SPF)
Bit depth : 16 bits
Compression mode : Lossy
Stream size : 623 MiB (12%)
Title : Dub
Language : Russian
Service kind : Complete Main
Default : Yes
Forced : No

Text
ID : 3
Format : UTF-8
Codec ID : S_TEXT/UTF8
Codec ID/Info : UTF-8 Plain Text
Duration : 2 h 15 min
Bit rate : 71 b/s
Count of elements : 1390
Stream size : 71.1 KiB (0%)
Title : Full
Language : Russian
Default : No
Forced : No
скриншот  скриншот  скриншот  скриншот  

© Оформление by DD2D3 pb.wtf



Скачать Остров через торрент https://funkyimg.com/i/2Zy4i.jpg Скачать фильм Остров через торрент бесплантно в хорошем качестве Описание: Линкольн Шесть-Эхо - житель на вид утопического, но охраняемого поселения середины XXI века. Как и все обитатели этого тщательно ... 9 10 7
Торрент: Зарегистрирован [2019-12-16 17:16] · скачан: 122 раз
Статус: √ проверено
Размер: 4.91 GB
Как cкачать? Как скачать Остров через торрент | UTorrent

% Раздел Тема Автор DL S | L
# Фильмы (HD 720p, 1080p) (48-60 fps) [ 4.24 GB ] Путешествие 2: Таинственный остров / Journey 2: The Mysterious Island [2012 BDRip 720p / 60 FPS ] slaventi-69 Скачать
1 | 0
Фильмы [HD 720p, 1080p] (Хороший звук DUB, MVO) [ 25.35 GB ] Остров / The Island [2005 BDRip 1080р ] Smart-1000 Скачать
1 | 0
Фильмы (HD 720p, 1080p) (48-60 fps) [ 6.3 GB ] Путешествие 2: Таинственный остров / Journey 2: The Mysterious Island [2012 BDRip 720p [] 60fps от mimok mimok Скачать
1 | 0
Фильмы (Blu-ray, BD-Remux, HDDVD) [ 44.7 GB ] Остров / The Island [2005 BD-Remux ] _KaisiK_ Скачать
1 | 0
Фильмы [HD 720p, 1080p] (Хороший звук DUB, MVO) [ 5.6 GB ] Путешествие 2: Таинственный остров / Journey 2: The Mysterious Island [2012 BDRip 720p лицензия] Ke$h@ Скачать
1 | 0

28-11-2019 20:33  

Отключить всю рекламу на сайте

16-07-2020 20:09 Остров Скачать торрент  

Автор, видео имеет много зерна и артефактов, очень жаль, рассчитывал на высшее качество как всегда. pb.wtf



07-08-2020 06:14 Остров Скачать торрент  

Вернитесь пожалуйста на раздачу. Уже 2-ой месяц не могу докачать.pb.wtf



    Дорогой пользователь! Огромная просьба, поблагодарите релизера, оцените раздачу и оставьте свои комментарий, если Вы скачали Остров через торрент бесплатно! Внесите свою лепту в развитие PiratBit!
    Комментировать посты могут только пользователи прошедшие не сложную регистрацию
    Показать сообщения:    

    Остров через торрент
    Скачать бесплатно Остров
    Остров скачать торрент
    Остров смотреть онлайн
    Cкачать фильм Остров бесплатно
    Остров скачать торрент в хорошем качестве
    Остров смотреть онлайн бесплатно в хорошем качестве


    Вы не можете начинать темы
    Вы не можете отвечать на сообщения
    Вы не можете редактировать свои сообщения
    Вы не можете удалять свои сообщения
    Вы не можете голосовать в опросах
    Вы не можете прикреплять файлы к сообщениям
    Вы можете скачивать файлы