2 сезон

iTunes

MVO

1

2 сезон

iTunes

iTunes

1 сезон

RePack

30

Новинка

ВАЖНО

ИГРА 18+

pack

RePack

MK11
pack

Легкие деньги

RePack

jed

RePack

fifa19

RePack

RDR2

RePack

NEED FOR SPEED™ PAYBACK

4 сезон

9 сезон

Бесстыжие 9 сезон

Все сериалы

все сериалы на PB.wtf

RePack

FAR CRY 5

Anonymous, доброй ночи, мы не успеваем собрать деньги на оплату серверов за декабрь и январь, помогите нам пожалуйста в это трудное время. В качестве благодарности мы отключим Вам всю рекламу на сайте (укажите свой ник в строку Ваше имя)!

×
  
Magnet ссылка

Опасная миссия / Mordene i Kongo (Мариус Хольст) [2018 г., драма, криминал, HDRip, Дубляж "iTunes"] pb.wtf

Опасная миссия через торрент pb.wtf

Раздают: 1 [ 0 KB/s ]
Размер: 767 MB | Добавлен: 1 год 1 мес. назад | Торрент скачан:19 раз
Скачать  

17-12-2019 18:31 Опасная миссия Скачать торрент  

Опасная миссия / Mordene i Kongo
Год выпуска: 2018
Страна: Норвегия / DO Productions, Friland Produksjon, Garage Film AB
Жанр: драма, криминал
Продолжительность: 02:07:56
Перевод: Дубляж (iTunes)

Режиссер: Мариус Хольст

rating

В ролях: Аксель Хенни, Тобиас Зантельман, Ине Ф. Джэнсен, Дэннис Сторхой, Тоне Даниелсен, Энтони Осейеми, Хаким Кае-Казим, Такс Тэд Лунгу, Patrick Madise, Benike Palfi

Описание: Весной 2009 года Френч и Моланд отправились в Конго. Это путешествие стало для них фатальным, явившись отправной точкой в цепочке необратимых событий. По пути они были арестованы властями по обвинению в убийстве своего водителя. Что же на самом деле случилось в тот роковой день, который изменил всю их жизнь? Были ли они обычными путешественниками или перед нами хладнокровные убийцы, которые связаны с большой шпионской игрой? Это предстоит выяснить следствию и вынести обвиняемым приговор.

Качество: HDRip
Формат: AVI
Видео кодек: DivX
Аудио кодек: MP3
Видео: 640x272 (2.35:1), 23.976 fps, DivX Codec 4.x ~700 kbps avg, 0.17 bit/pixel
Аудио: 48 kHz, MPEG Layer 3, 2 ch, ~128.00 kbps avg
скриншот   скриншот   скриншот   скриншот   скриншот   скриншот   скриншот   скриншот  

Общее
Полное имя : F:\ФИЛЬМЫ\Опасная миссия.2018.D.HDRip.avi
Формат : AVI
Формат/Информация : Audio Video Interleave
Размер файла : 767 Мбайт
Продолжительность : 2 ч. 7 м.
Общий поток : 838 Кбит/сек
Программа кодирования : VirtualDubMod 1.5.10.3 | www.virtualdub-fr.org || (build 2550/release)
Библиотека кодирования : VirtualDubMod build 2550/release

Видео
Идентификатор : 0
Формат : MPEG-4 Visual
Профиль формата : Advanced Simple@L5
Настройки формата : BVOP3 / GMC3 / QPel
Параметр BVOP формата : 3
Параметр QPel формата : Да
Параметр GMC формата : 3 точки перехода
Параметр матрицы формата : Default (MPEG)
Идентификатор кодека : DIVX
Идентификатор кодека/Информация : Project Mayo
Идентификатор кодека/Подсказка : DivX 4
Продолжительность : 2 ч. 7 м.
Битрейт : 700 Кбит/сек
Ширина : 640 пикселей
Высота : 272 пикселя
Соотношение сторон : 2,35:1
Частота кадров : 23,976 (24000/1001) кадра/сек
Цветовое пространство : YUV
Субдискретизация насыщенности : 4:2:0
Битовая глубина : 8 бит
Тип развёртки : Прогрессивная
Метод сжатия : С потерями
Бит/(Пиксели*Кадры) : 0.168
Размер потока : 641 Мбайт (84%)
Библиотека кодирования : XviD 1.2.1 (UTC 2008-12-04)

Аудио
Идентификатор : 1
Формат : MPEG Audio
Версия формата : Version 1
Профиль формата : Layer 3
Настройки формата : Joint stereo / MS Stereo
Идентификатор кодека : 55
Идентификатор кодека/Подсказка : MP3
Продолжительность : 2 ч. 7 м.
Вид битрейта : Постоянный
Битрейт : 128 Кбит/сек
Каналы : 2 канала
Частота : 48,0 КГц
Частота кадров : 41,667 кадра/сек (1152 SPF)
Метод сжатия : С потерями
Размер потока : 117 Мбайт (15%)
Выравнивание : Соединение по промежуткам
Продолжительность промежутка : 42 мс. (1,00 видеокадр)
Время предзагрузки промежутка : 504 мс.
Библиотека кодирования : LAME3.99r
Настройки программы : -m j -V 4 -q 2 -lowpass 17 -b 128

pb.wtf



Скачать Опасная миссия через торрент http://pic1.kartinco.top/images/12/bgx97.jpg Скачать фильм Опасная миссия через торрент бесплантно в хорошем качестве Описание: Весной 2009 года Френч и Моланд отправились в Конго. Это путешествие стало для них фатальным, явившись отправной точкой в цепочке ... 10 10 1
Торрент: Зарегистрирован [2019-12-17 18:31] · скачан: 19 раз
Статус: √ проверено
Размер: 767 MB
Как cкачать? Как скачать Опасная миссия через торрент | UTorrent

% Раздел Тема Автор DL S | L
T Фильмы [HD 720p, 1080p] (Хороший звук DUB, MVO) [ 9.08 GB ] Опасная миссия / Mordene i Kongo [2018 BDRip 1080p] bober100 Скачать
1 | 0
Фильмы 2018 [DVDrip, WEB-DLRip, HDrip] (DUB, MVO) [ 2.18 GB ] Опасная миссия / Mordene i Kongo [2018 HDRip] bober100 Скачать
2 | 0
Фильмы 2018 [DVDrip, WEB-DLRip, HDrip] (DUB, MVO) [ 1.46 GB ] Опасная миссия / Mordene i Kongo [2018 HDRip] bober100 Скачать
2 | 0

28-11-2019 20:33  

Отключить всю рекламу на сайте

    Дорогой пользователь! Огромная просьба, поблагодарите релизера, оцените раздачу и оставьте свои комментарий, если Вы скачали Опасная миссия через торрент бесплатно! Внесите свою лепту в развитие PiratBit!
    Комментировать посты могут только пользователи прошедшие не сложную регистрацию
    Показать сообщения:    

    Опасная миссия через торрент
    Скачать бесплатно Опасная миссия
    Опасная миссия скачать торрент
    Опасная миссия смотреть онлайн
    Cкачать фильм Опасная миссия бесплатно
    Опасная миссия скачать торрент в хорошем качестве
    Опасная миссия смотреть онлайн бесплатно в хорошем качестве


    Вы не можете начинать темы
    Вы не можете отвечать на сообщения
    Вы не можете редактировать свои сообщения
    Вы не можете удалять свои сообщения
    Вы не можете голосовать в опросах
    Вы не можете прикреплять файлы к сообщениям
    Вы можете скачивать файлы