2 сезон

iTunes

WEBRip

1

2 сезон

iTunes

1 сезон

1 сезон

RePack

30

Ultimate

ВАЖНО

ИГРА 18+

pack

RePack

MK11
pack

Легкие деньги

RePack

jed

RePack

fifa19

RePack

RDR2

RePack

NEED FOR SPEED™ PAYBACK

4 сезон

9 сезон

Бесстыжие 9 сезон

Все сериалы

все сериалы на PB.wtf

RePack

FAR CRY 5

Anonymous, добрый вечер, мы не успеваем собрать деньги на оплату серверов за февраль, помогите нам пожалуйста в это трудное время. В качестве благодарности мы отключим Вам всю рекламу на сайте (укажите свой ник в строку Ваше имя)!

×
  
Magnet ссылка

Люси в небесах / Lucy in the Sky (Ноа Хоули) [2019, Драма, биография, WEB-DL 1080p] MVO [iTunes] pb.wtf

Люси в небесах через торрент pb.wtf

Раздают: 1 [ 0 KB/s ]
Размер: 6.81 GB | Добавлен: 10 мес. назад | Торрент скачан:73 раза
Скачать  

17-12-2019 19:50 Люси в небесах Скачать торрент  

Люси в небесах | Lucy in the Sky
Год выпуска: 2019
Страна: США
Студия: 26 Keys Productions, Fox Searchlight Pictures
Жанр: Драма, биография
Продолжительность: 02:05:03
Перевод: Профессиональный (многоголосый) | iTunes
Субтитры: Русские, английские

Режиссер: Ноа Хоули

rating

В ролях: Натали Портман, Джон Хэмм, Зази Битц, Дэн Стивенс, Перл Аманда Диксон, Эллен Бёрстин, Колман Доминго, Джеремайя Биркетт, Джеффри Донован, Тиг Нотаро, Стелла Эдвардс, Арло Мерц, Диана Де Ла Круз, Ник Офферман, Джо Уильямсон

Описание: Пробыв несколько дней на орбите, астронавт Люси Кола возвращается на Землю к любящему мужу и племяннице. Все обычные вещи кажутся женщине мелкими и незначительными, и теперь единственное, чего она хочет больше всего на свете — это снова отправиться в космос. Люси становится участницей подготовки к следующей миссии NASA, усердно тренируется и изо всех сил старается попасть в команду.

Качество: WEB-DL 1080p
Формат: MKV

Видео: MPEG-4 AVC, 1920x1040, 6775 Kbit/s, 23.976 fps
Аудио #01: 48 kHz, AC3, 5.1, 384 Kbps | iTunes | RUS |
Аудио #02: 48 kHz, AC3, 5.1, 640 Kbps | Оригинал | ENG |
скриншот  скриншот  скриншот  скриншот  скриншот  

General
Unique ID : 281489674596551530566588099373645541130 (0xD3C4F078339FEDAAB53F90C6D81DAF0A)
Complete name : E:Video111Lucy.in.the.Sky.AMZN.WEB-DL.1080p.seleZen.mkv
Format : Matroska
Format version : Version 4
File size : 6.81 GiB
Duration : 2 h 5 min
Overall bit rate : 7 801 kb/s
Movie name : Lucy in the Sky 2019 from селезень
Encoded date : UTC 2020-04-03 08:52:53
Writing application : mkvmerge v40.0.0 ('Old Town Road + Pony') 64-bit
Writing library : libebml v1.3.9 + libmatroska v1.5.2

Video
ID : 1
Format : AVC
Format/Info : Advanced Video Codec
Format profile : High@L4
Format settings : CABAC / 4 Ref Frames
Format settings, CABAC : Yes
Format settings, Reference : 4 frames
Codec ID : V_MPEG4/ISO/AVC
Duration : 2 h 5 min
Bit rate mode : Constant
Bit rate : 6 775 kb/s
Nominal bit rate : 10 000 kb/s
Width : 1 920 pixels
Height : 1 040 pixels
Display aspect ratio : 1.85:1
Frame rate mode : Constant
Frame rate : 23.976 (24000/1001) FPS
Color space : YUV
Chroma subsampling : 4:2:0
Bit depth : 8 bits
Scan type : Progressive
Bits/(Pixel*Frame) : 0.142
Stream size : 5.92 GiB (87%)
Language : English
Default : Yes
Forced : No
Color range : Limited
Color primaries : BT.709
Transfer characteristics : BT.709
Matrix coefficients : BT.709

Audio #1
ID : 2
Format : AC-3
Format/Info : Audio Coding 3
Commercial name : Dolby Digital
Codec ID : A_AC3
Duration : 2 h 5 min
Bit rate mode : Constant
Bit rate : 384 kb/s
Channel(s) : 6 channels
Channel layout : L R C LFE Ls Rs
Sampling rate : 48.0 kHz
Frame rate : 31.250 FPS (1536 SPF)
Compression mode : Lossy
Stream size : 343 MiB (5%)
Title : iTunes
Language : Russian
Service kind : Complete Main
Default : Yes
Forced : Yes

Audio #2
ID : 3
Format : E-AC-3
Format/Info : Enhanced AC-3
Commercial name : Dolby Digital Plus
Codec ID : A_EAC3
Duration : 2 h 5 min
Bit rate mode : Constant
Bit rate : 640 kb/s
Channel(s) : 6 channels
Channel layout : L R C LFE Ls Rs
Sampling rate : 48.0 kHz
Frame rate : 31.250 FPS (1536 SPF)
Compression mode : Lossy
Stream size : 572 MiB (8%)
Title : Original
Language : English
Service kind : Complete Main
Default : No
Forced : No

Text #1
ID : 4
Format : UTF-8
Codec ID : S_TEXT/UTF8
Codec ID/Info : UTF-8 Plain Text
Duration : 1 h 58 min
Bit rate : 3 b/s
Count of elements : 57
Stream size : 2.98 KiB (0%)
Title : Forced
Language : Russian
Default : Yes
Forced : Yes

Text #2
ID : 5
Format : UTF-8
Codec ID : S_TEXT/UTF8
Codec ID/Info : UTF-8 Plain Text
Duration : 2 h 4 min
Bit rate : 72 b/s
Count of elements : 1414
Stream size : 66.6 KiB (0%)
Title : Full
Language : Russian
Default : No
Forced : No

Text #3
ID : 6
Format : UTF-8
Codec ID : S_TEXT/UTF8
Codec ID/Info : UTF-8 Plain Text
Duration : 2 h 4 min
Bit rate : 49 b/s
Count of elements : 1446
Stream size : 44.8 KiB (0%)
Title : Full
Language : English
Default : No
Forced : No

Text #4
ID : 7
Format : UTF-8
Codec ID : S_TEXT/UTF8
Codec ID/Info : UTF-8 Plain Text
Duration : 2 h 4 min
Bit rate : 53 b/s
Count of elements : 1606
Stream size : 48.6 KiB (0%)
Title : SDH
Language : English
Default : No
Forced : No

Menu
00:00:00.000 : en:Chapter 01
00:05:55.438 : en:Chapter 02
00:13:31.810 : en:Chapter 03
00:16:08.299 : en:Chapter 04
00:19:44.556 : en:Chapter 05
00:26:16.989 : en:Chapter 06
00:29:10.370 : en:Chapter 07
00:32:24.563 : en:Chapter 08
00:34:37.779 : en:Chapter 09
00:38:19.750 : en:Chapter 10
00:45:19.628 : en:Chapter 11
00:54:01.483 : en:Chapter 12
01:00:47.847 : en:Chapter 13
01:07:41.260 : en:Chapter 14
01:13:18.304 : en:Chapter 15
01:19:06.901 : en:Chapter 16
01:25:00.086 : en:Chapter 17
01:31:31.351 : en:Chapter 18
01:36:02.789 : en:Chapter 19
01:40:05.531 : en:Chapter 20
01:43:49.712 : en:Chapter 21
01:48:29.074 : en:Chapter 22
01:54:33.103 : en:Chapter 23
01:58:39.015 : en:Chapter 24

pb.wtf



Скачать Люси в небесах через торрент https://i111.fastpic.ru/big/2020/0403/65/6455c105adf7f4cdf57bb8c7ddbdf565.jpg Скачать фильм Люси в небесах через торрент бесплантно в хорошем качестве Описание: Пробыв несколько дней на орбите, астронавт Люси Кола возвращается на Землю к любящему мужу и племяннице. Все обычные вещи кажутся ... 10 10 9
Торрент: Зарегистрирован [2020-04-03 09:03] · скачан: 73 раз
Статус: √ проверено
Размер: 6.81 GB
Как cкачать? Как скачать Люси в небесах через торрент | UTorrent

% Раздел Тема Автор DL S | L
T Фильмы (мультфильмы) cо спонсором показа (Новинки AVI/MKV) [ 5.07 GB ] Люси в небесах / Lucy in the Sky [2019 WEB-DL 720p] MVO [AlphaProject] bober100 Скачать
1 | 0
Фильмы 2019-2020 [DVDrip, WEB-DLRip, HDrip] (DUB, MVO) [ 2.18 GB ] Люси в небесах / Lucy in the Sky [2019 биография WEB-DLRip] MVO bober100 Скачать
1 | 0
Фильмы 2019-2020 [DVDrip, WEB-DLRip, HDrip] (DUB, MVO) [ 1.46 GB ] Люси в небесах / Lucy in the Sky [2019 биография WEB-DLRip] MVO bober100 Скачать
1 | 0

28-11-2019 20:33  

Отключить всю рекламу на сайте

    Дорогой пользователь! Огромная просьба, поблагодарите релизера, оцените раздачу и оставьте свои комментарий, если Вы скачали Люси в небесах через торрент бесплатно! Внесите свою лепту в развитие PiratBit!
    Комментировать посты могут только пользователи прошедшие не сложную регистрацию
    Показать сообщения:    

    Люси в небесах через торрент
    Скачать бесплатно Люси в небесах
    Люси в небесах скачать торрент
    Люси в небесах смотреть онлайн
    Cкачать фильм Люси в небесах бесплатно
    Люси в небесах скачать торрент в хорошем качестве
    Люси в небесах смотреть онлайн бесплатно в хорошем качестве


    Вы не можете начинать темы
    Вы не можете отвечать на сообщения
    Вы не можете редактировать свои сообщения
    Вы не можете удалять свои сообщения
    Вы не можете голосовать в опросах
    Вы не можете прикреплять файлы к сообщениям
    Вы можете скачивать файлы