Ссылка на приватное зеркало нашего сайта всего за 1$. Внимание количество ограничено!!!

2 сезон

iTunes

1 сезон

1

2 сезон

2 сезон

iTunes

1 сезон

RePack

30

Ultimate

ВАЖНО

ИГРА 18+

pack

RePack

MK11
pack

Забери бонус

RePack

jed

!!Акция!!

Alien_Rage

RePack

fifa19

RePack

Assassins Creed: Odyssey

RePack

NEED FOR SPEED™ PAYBACK

4 сезон

9 сезон

Бесстыжие 9 сезон

Все сериалы

все сериалы на PB.wtf

RePack

FAR CRY 5
  

Текст (Клим Шипенко) [2019, драма, триллер, WEB-DLRip-AVC (Версия без цензуры)] [iTunes] - ExKinoRay pb.wtf

Текст через торрент pb.wtf

Раздают: 9 [ 0 KB/s ]
Размер: 2.03 GB | Добавлен: 11 мес. назад | Торрент скачан:2147 раз
Скачать  

18-12-2019 03:41 Текст Скачать торрент  

[ Название: Текст
Год выхода: 2019
Жанр: Драма, триллер
Режиссер: Клим Шипенко
В ролях: Александр Петров, Кристина Асмус, Иван Янковский, Софья Озерова, Максим Виноградов, Виталий Хаев, Дмитрий Глуховский, Кирилл Нагиев, Елена Финогеева

Описание: Главный герой — 27-летний Илья Горюнов, семь лет отсидевший в тюрьме по ложному обвинению в распространении наркотиков. Когда Илья выходит на свободу, он понимает, что прежняя жизнь, по которой он тосковал, разрушена, и вернуться к ней он больше не сможет. Хотя он не собирался мстить человеку, который отправил его в тюрьму, другого выхода теперь нет. Встретившись лицом к лицу со своим обидчиком, Илья совершает необдуманный поступок, после которого главный герой получает доступ к смартфону Петра, а с ним и к жизни молодого человека — его фотографиям и видео, перепискам с родителями и девушкой Ниной, к странным, полным недомолвок и угроз переговорам с коллегами. На время Илья становится для всех Петром — через текст на экране телефона.

rating

Страна: Россия
Студия: Фонд развития современного кинематографа «КИНОПРАЙМ», Централ Партнершип, START Studio
Продолжительность: 02:11:30
Язык: Русский

Формат: MKV
Качество: WEB-DLRip-AVC
Видео: MPEG-4 AVC, 1024x428 (2.40:1), 24.000 fps, 1829 Kbps, 0.174 bit/pixel
Аудио : 48 kHz, AC3, 5.1, 384 Kbps | iTunes | RUS |

18+ [ненормативная лексика, сцены сексуального характера]
General
Unique ID : 229172499706899841822561029123752225780 (0xAC69049920F5F768899532FEC79E6BF4)
Complete name : F:\Tekst.2O19.O.WEB-DL.AVC.ExKinoRay.mkv
Format : Matroska
Format version : Version 2
File size : 2.03 GiB
Duration : 2 h 11 min
Overall bit rate : 2 212 kb/s
Movie name : Текст 2019 from ExKinoRay
Encoded date : UTC 2019-12-18 02:50:38
Writing application : mkvmerge v5.6.0 ('Kenya Kane') built on May 27 2012 16:44:04
Writing library : libebml v1.2.3 + libmatroska v1.3.0

Video
ID : 1
Format : AVC
Format/Info : Advanced Video Codec
Format profile : High@L4.1
Format settings, CABAC : Yes
Format settings, ReFrames : 11 frames
Codec ID : V_MPEG4/ISO/AVC
Duration : 2 h 11 min
Bit rate : 1 829 kb/s
Width : 1 024 pixels
Height : 428 pixels
Display aspect ratio : 2.40:1
Frame rate mode : Constant
Frame rate : 24.000 FPS
Color space : YUV
Chroma subsampling : 4:2:0
Bit depth : 8 bits
Scan type : Progressive
Bits/(Pixel*Frame) : 0.174
Stream size : 1.64 GiB (81%)
Title : Enigma
Writing library : x264 core 152 r2851 ba24899
Encoding settings : cabac=1 / ref=11 / deblock=1:-2:-2 / analyse=0x3:0x113 / me=umh / subme=10 / psy=1 / psy_rd=1.00:0.05 / mixed_ref=1 / me_range=32 / chroma_me=1 / trellis=2 / 8x8dct=1 / cqm=0 / deadzone=21,11 / fast_pskip=0 / chroma_qp_offset=-3 / threads=12 / lookahead_threads=2 / sliced_threads=0 / nr=0 / decimate=0 / interlaced=0 / bluray_compat=0 / constrained_intra=0 / bframes=9 / b_pyramid=2 / b_adapt=2 / b_bias=0 / direct=3 / weightb=1 / open_gop=0 / weightp=2 / keyint=240 / keyint_min=24 / scenecut=40 / intra_refresh=0 / rc=2pass / mbtree=0 / bitrate=1829 / ratetol=1.0 / qcomp=0.60 / qpmin=0 / qpmax=51 / qpstep=4 / cplxblur=20.0 / qblur=0.5 / ip_ratio=1.40 / pb_ratio=1.30 / aq=1:1.00
Default : Yes
Forced : No
Color range : Limited
Color primaries : BT.709
Transfer characteristics : BT.709
Matrix coefficients : BT.709

Audio
ID : 2
Format : AC-3
Format/Info : Audio Coding 3
Mode extension : CM (complete main)
Format settings, Endianness : Big
Codec ID : A_AC3
Duration : 2 h 11 min
Bit rate mode : Constant
Bit rate : 384 kb/s
Channel(s) : 6 channels
Channel positions : Front: L C R, Side: L R, LFE
Sampling rate : 48.0 kHz
Frame rate : 31.250 FPS (1536 spf)
Compression mode : Lossy
Stream size : 361 MiB (17%)
Title : iTunes
Language : Russian
Default : Yes
Forced : No

Menu
00:00:00.000 : ru:Глава 1
00:04:52.125 : ru:Глава 2
00:10:33.916 : ru:Глава 3
00:15:49.332 : ru:Глава 4
00:22:12.040 : ru:Глава 5
00:33:46.665 : ru:Глава 6
00:40:08.790 : ru:Глава 7
00:50:25.248 : ru:Глава 8
00:55:08.748 : ru:Глава 9
01:02:37.498 : ru:Глава 10
01:13:17.873 : ru:Глава 11
01:22:30.914 : ru:Глава 12
01:29:07.455 : ru:Глава 13
01:34:49.871 : ru:Глава 14
01:40:12.162 : ru:Глава 15
01:46:42.537 : ru:Глава 16
01:55:16.328 : ru:Глава 15
02:06:00.744 : ru:Глава 16


Релиз от:

Автор релиза: pb.wtf



Скачать Текст через торрент https://a.radikal.ru/a26/1912/d6/7828e141cc90.jpg Скачать фильм Текст через торрент бесплантно в хорошем качестве Описание: Главный герой — 27-летний Илья Горюнов, семь лет отсидевший в тюрьме по ложному обвинению в распространении наркотиков. Когда ... 9.7 10 42
Info! Золотая раздача, скачанное не засчитывается.
Торрент: Зарегистрирован [2019-12-18 03:41] · скачан: 2 147 раз
Статус: √ проверено
Размер: 2.03 GB
Как cкачать? Как скачать Текст через торрент | qTorrent

% Раздел Тема Автор DL S | L
Наши новые фильмы 2018-2019 [ 2.04 GB ] Текст [2019 HDRip-AVC ] [ BD RUS] - ExKinoRay Enigma2010 Скачать
18 | 0

28-11-2019 20:33  

Отключить всю рекламу на сайте

24-12-2019 12:38 Текст Скачать торрент  

ох и ах-ахуген фильм!pb.wtf



24-12-2019 12:38 Текст Скачать торрент  

нервы вам потреплетpb.wtf



24-12-2019 21:23 Текст Скачать торрент  

большой привет Гарику "Оленю рогатому" Харламову... глянем, что там за порно Шипенко с его женушкой наснимал.pb.wtf



03-01-2020 21:22 Текст Скачать торрент  

WoolBoy писал(а):

большой привет Гарику "Оленю рогатому" Харламову... глянем, что там за порно Шипенко с его женушкой наснимал.

Видел видео в инете,у меня встал)) Не отказался бы тоже от Асмус))pb.wtf



04-01-2020 18:42 Текст Скачать торрент  

Неожиданно хороший фильм, депрессивный только очень. Ждешь хэппи-энда. А его все нет. И не будет. Кино заставляет задуматься. Только ничего не изменится.pb.wtf



07-01-2020 15:53 Текст Скачать торрент  

Нормальный фильм. Посмотрел, не пожалел.
Рекомендую тем, кому за 30.
Молодежь, боюсь, поймет неправильно этот фильм.pb.wtf



30-01-2020 13:29 Текст Скачать торрент  

Фильм шикарен! Многие хейтеры говорят переигрывает главный актер - ничего подобного, сыграл хорошо! Лучший фильм 19 года, даже среди западных.pb.wtf



    Дорогой пользователь! Огромная просьба, поблагодарите релизера, оцените раздачу и оставьте свои комментарий, если Вы скачали Текст через торрент бесплатно! Внесите свою лепту в развитие PiratBit!
    Комментировать посты могут только пользователи прошедшие не сложную регистрацию
    Показать сообщения:    

    Текст через торрент
    Скачать бесплатно Текст
    Текст скачать торрент
    Текст смотреть онлайн
    Cкачать фильм Текст бесплатно
    Текст скачать торрент в хорошем качестве
    Текст смотреть онлайн бесплатно в хорошем качестве


    Вы не можете начинать темы
    Вы не можете отвечать на сообщения
    Вы не можете редактировать свои сообщения
    Вы не можете удалять свои сообщения
    Вы не можете голосовать в опросах
    Вы не можете прикреплять файлы к сообщениям
    Вы можете скачивать файлы