Всегда рабочее зеркало без VPN и Proxy просто перед .vidak.icu напиши любое слово или цифру, Пример http://meyy.vidak.icu

MVO

MVO

1 сезон

1

1 сезон

iTunes

1 сезон

13

1 сезон

Deluxe

pack

Рекомендуем

Repack

30

ВАЖНО

RePack

MK11

RePack

jed

RePack

fifa19

RePack

RDR2

RePack

NEED FOR SPEED™ PAYBACK

Кинопоиск HD

6 сезон

 Острые козырьки 6 сезон

Все сериалы

все сериалы на PB.wtf

RePack

FAR CRY 5
  
Magnet ссылка

Шестеро вне закона / Призрачная шестерка / 6 Underground (Майкл Бэй) [2019, боевик, триллер, UHD WEBRip 2160p] DUB [Пифагор] pb.wtf

Шестеро вне закона через торрент pb.wtf

Раздают: 3 [ 23 KB/s ]
Размер: 14.77 GB | Добавлен: 2 года 7 мес. назад | Торрент скачан:1249 раз
Смотреть онлайн Шестеро вне закона | Скачать    Ребята, помогите собрать деньги на оплату серверов!!!

18-12-2019 07:22 Шестеро вне закона Скачать торрент  

Шестеро вне закона / Призрачная шестерка / 6 Underground
Год выпуска: 2019
Страна: США
Студия: Bay Films, Skydance Media
Жанр: боевик, триллер
Продолжительность: 02:08:52
Перевод: Дублированный | Пифагор
Субтитры: Русские (Forced, full), английские

Режиссер: Майкл Бэй

rating

В ролях:

Райан Рейнольдс (One), Адриа Архона, Мелани Лоран (Two), Бен Харди, Дэйв Франко, Себастьян Роше, Ситара Аттайе (Turkmen Rebellion), Кори Хоукинс (Five), Мануэль Рульфо (Three), Джеймс Мюррэй (Caleb), Ryan Baumann (Grocery Store Kid), Элен Кардона (Opera Guest)
Описание: Огромные деньги дают большую Влacть, но не гарантируют свободы. Шесть миллиардеров решают инсценировать свою смерть, чтобы стать «невидимками» для этого мира и полностью развязать себе руки. Они исчезли из поля зрения властей, полиции и своих врагов. Группа под руководством лидера с позывным «Первый» начинает собственную вендетту против преступников. Они вершат правосудие в той форме, в какой они это представляют. У них есть бездна времени и неограниченные финансовые возможности. Командир под кодовым именем «Первый» и его секретный отряд для борьбы с криминалом отчаянно сражаются с несправедливостью и злом, используя для этого весь арсенал современных гаджетов. Ведь в мире еще так много страданий. Шесть миллиардеров с радостью стерли свое прошлое, чтобы начать новую, свободную жизнь. Любой из шести является лучшим в своем деле. Каждый член секретной подпольной организации в ходе первой же операции по нейтрализации могущественных преступников опьянен адреналином от ощущения, что балансировал на краю смерти. Но, перейдя на другую сторону закона и исчезнув с радаров, они наслаждаются ощущением бесконечной свободы и могущества.

Качество: UHD WEBRip 2160p
Формат: MKV

Видео: 3840x1604 at 23.976 fps, MPEG-H HEVC HDR Video, 15100 kbps avg
Аудио #01: 48 kHz, E-AC3, 5.1, 640 Kbps | Дублированный | RUS |
Аудио #02: 48 kHz, E-AC3+Dolby Atmos, 5.1, 768 Kbps | Оригинал | ENG |
скриншот  скриншот  скриншот  скриншот  скриншот  

Общее
Уникальный идентификатор : 338928716353675825873923745969073630049 (0xFEFB4BDFCF7CF023EDA478773DF92B61)
Полное имя : C:\6.Underground.2019.WEBRip.2160p.HDR.seleZen.mkv
Формат : Matroska
Версия формата : Version 4
Размер файла : 14,8 Гбайт
Продолжительность : 2 ч. 8 м.
Общий поток : 16,4 Мбит/сек
Название фильма : 6 Underground (2019) from селезень
Дата кодирования : UTC 2019-12-18 07:14:54
Программа кодирования : mkvmerge v40.0.0 ('Old Town Road + Pony') 64-bit
Библиотека кодирования : libebml v1.3.9 + libmatroska v1.5.2

Видео
Идентификатор : 1
Формат : HEVC
Формат/Информация : High Efficiency Video Coding
Профиль формата : Main [email protected]@High
HDR_Format/String : SMPTE ST 2086, HDR10 compatible
Идентификатор кодека : V_MPEGH/ISO/HEVC
Продолжительность : 2 ч. 8 м.
Битрейт : 15,1 Мбит/сек
Ширина : 3840 пикселей
Высота : 1604 пикселя
Соотношение сторон : 2,40:1
Режим частоты кадров : Постоянный
Частота кадров : 23,976 (24000/1001) кадра/сек
Цветовое пространство : YUV
Субдискретизация насыщенности : 4:2:0 (Type 2)
Битовая глубина : 10 бит
Бит/(Пиксели*Кадры) : 0.099
Размер потока : 13,2 Гбайт (89%)
Библиотека кодирования : x265 3.0_Au+4-dcbec33bfb0f:[Windows][GCC 8.2.1][64 bit] 10bit
Настройки программы : cpuid=1111039 / frame-threads=5 / numa-pools=16,16 / wpp / no-pmode / no-pme / no-psnr / no-ssim / log-level=2 / input-csp=1 / input-res=3840x1604 / interlace=0 / total-frames=184215 / level-idc=51 / high-tier=1 / uhd-bd=0 / ref=5 / no-allow-non-conformance / repeat-headers / annexb / aud / hrd / info / hash=0 / no-temporal-layers / no-open-gop / min-keyint=24 / keyint=240 / gop-lookahead=0 / bframes=8 / b-adapt=2 / b-pyramid / bframe-bias=0 / rc-lookahead=40 / lookahead-slices=0 / scenecut=40 / radl=0 / no-splice / no-intra-refresh / ctu=64 / min-cu-size=8 / rect / amp / max-tu-size=32 / tu-inter-depth=3 / tu-intra-depth=3 / limit-tu=4 / rdoq-level=2 / dynamic-rd=0.00 / no-ssim-rd / signhide / no-tskip / nr-intra=0 / nr-inter=0 / no-constrained-intra / no-strong-intra-smoothing / max-merge=4 / limit-refs=1 / limit-modes / me=3 / subme=4 / merange=57 / temporal-mvp / weightp / weightb / no-analyze-src-pics / deblock=-3:-3 / no-sao / no-sao-non-deblock / rd=6 / no-early-skip / rskip / no-fast-intra / no-tskip-fast / no-cu-lossless / b-intra / no-splitrd-skip / rdpenalty=0 / psy-rd=2.00 / psy-rdoq=1.00 / no-rd-refine / no-lossless / cbqpoffs=0 / crqpoffs=0 / rc=crf / crf=17.0 / qcomp=0.60 / qpstep=4 / stats-write=0 / stats-read=0 / vbv-maxrate=160000 / vbv-bufsize=160000 / vbv-init=0.9 / crf-max=0.0 / crf-min=0.0 / ipratio=1.40 / pbratio=1.30 / aq-mode=2 / aq-strength=1.00 / cutree / zone-count=0 / no-strict-cbr / qg-size=32 / no-rc-grain / qpmax=69 / qpmin=0 / no-const-vbv / sar=1 / overscan=0 / videoformat=5 / range=0 / colorprim=9 / transfer=16 / colormatrix=9 / chromaloc=1 / chromaloc-top=2 / chromaloc-bottom=2 / display-window=0 / master-display=G(13250,34500)B(7500,3000)R(34000,16000)WP(15635,16450)L(10000000,01) / max-cll=1477,446 / min-luma=0 / max-luma=1023 / log2-max-poc-lsb=8 / vui-timing-info / vui-hrd-info / slices=1 / no-opt-qp-pps / no-opt-ref-list-length-pps / no-multi-pass-opt-rps / scenecut-bias=0.05 / no-opt-cu-delta-qp / no-aq-motion / hdr / hdr-opt / no-dhdr10-opt / no-idr-recovery-sei / analysis-reuse-level=5 / scale-factor=0 / refine-intra=0 / refine-inter=0 / refine-mv=0 / refine-ctu-distortion=0 / no-limit-sao / ctu-info=0 / no-lowpass-dct / refine-analysis-type=0 / copy-pic=1 / max-ausize-factor=1.0 / no-dynamic-refine / no-single-sei / no-hevc-aq / qp-adaptation-range=1.00
Язык : English
Default : Да
Forced : Нет
Цветовой диапазон : Limited
Основные цвета : BT.2020
Характеристики трансфера : PQ
Коэффициенты матрицы : BT.2020 non-constant
MasteringDisplay_ColorPrimaries : Display P3
MasteringDisplay_Luminance : min: 0.0001 cd/m2, max: 1000 cd/m2
MaxCLL : 1477 cd/m2
MaxFALL : 446 cd/m2

Аудио #1
Идентификатор : 2
Формат : E-AC-3
Формат/Информация : Enhanced AC-3
Коммерческое название : Dolby Digital Plus
Идентификатор кодека : A_EAC3
Продолжительность : 2 ч. 8 м.
Вид битрейта : Постоянный
Битрейт : 640 Кбит/сек
Каналы : 6 каналов
ChannelLayout : L R C LFE Ls Rs
Частота : 48,0 КГц
Частота кадров : 31,250 кадров/сек (1536 SPF)
Метод сжатия : С потерями
Размер потока : 590 Мбайт (4%)
Заголовок : Dub
Язык : Russian
ServiceKind/String : Complete Main
Default : Да
Forced : Да

Аудио #2
Идентификатор : 3
Формат : E-AC-3 JOC
Формат/Информация : Enhanced AC-3 with Joint Object Coding
Коммерческое название : Dolby Digital Plus with Dolby Atmos
Идентификатор кодека : A_EAC3
Продолжительность : 2 ч. 8 м.
Вид битрейта : Постоянный
Битрейт : 768 Кбит/сек
Каналы : 6 каналов
ChannelLayout : L R C LFE Ls Rs
Частота : 48,0 КГц
Частота кадров : 31,250 кадров/сек (1536 SPF)
Метод сжатия : С потерями
Размер потока : 708 Мбайт (5%)
Заголовок : Original
Язык : English
ServiceKind/String : Complete Main
Default : Нет
Forced : Нет
ComplexityIndex : 16
NumberOfDynamicObjects : 15
BedChannelCount/String : 1 канал
BedChannelConfiguration : LFE

Текст #1
Идентификатор : 4
Формат : UTF-8
Идентификатор кодека : S_TEXT/UTF8
Идентификатор кодека/Информация : UTF-8 Plain Text
Заголовок : Forced
Язык : Russian
Default : Да
Forced : Да

Текст #2
Идентификатор : 5
Формат : UTF-8
Идентификатор кодека : S_TEXT/UTF8
Идентификатор кодека/Информация : UTF-8 Plain Text
Заголовок : Full
Язык : Russian
Default : Нет
Forced : Нет

Текст #3
Идентификатор : 6
Формат : UTF-8
Идентификатор кодека : S_TEXT/UTF8
Идентификатор кодека/Информация : UTF-8 Plain Text
Язык : English
Default : Нет
Forced : Нет

pb.wtf



Скачать Шестеро вне закона через торрент https://a.radikal.ru/a24/1912/6f/39f28fb5dafc.png Скачать, смотреть онлайн Шестеро вне закона бесплантно в хорошем качестве Описание: Огромные деньги дают большую Влacть, но не гарантируют свободы. Шесть миллиардеров решают инсценировать свою смерть, чтобы стать ... 9.7 10 26
Info! Золотая раздача, скачанное не засчитывается.
Торрент: Зарегистрирован [2019-12-18 07:22] · скачан: 1 249 раз
Статус: √ проверено
Размер: 14.77 GB
Как cкачать? Как скачать Шестеро вне закона через торрент | UTorrent

% Раздел Тема Автор DL S | L
Фильмы (HD 720p, 1080p) (48-60 fps) [ 3.81 GB ] Призрачная шестёрка / Шестеро вне закона / 6 Underground [2019 WEB-DLRip 720p / 60 FPS ] от R.G. HD-Films slaventi-69 Скачать
2 | 0
Фильмы 2019-2020 [DVDrip, WEB-DLRip, HDrip] (DUB, MVO) [ 1.46 GB ] Шестеро вне закона / Призрачная шестерка / 6 Underground [2019 WEB-DLRip] - [Пифагор] Twi7ter Скачать
24 | 0
Фильмы 2019-2020 [DVDrip, WEB-DLRip, HDrip] (DUB, MVO) [ 2.2 GB ] Шестеро вне закона / Призрачная шестерка / 6 Underground [2019 WEB-DLRip] - [Пифагор] Twi7ter Скачать
13 | 0
Фильмы 2019-2020 [DVDrip, WEB-DLRip, HDrip] (DUB, MVO) [ 2.54 GB ] Шестеро вне закона / Призрачная шестерка / 6 Underground [2019 WEB-DLRip-AVC] DUB [Пифагор] - ExKinoRay Enigma2010 Скачать
12 | 0
Фильмы 2019-2020 [DVDrip, WEB-DLRip, HDrip] (DUB, MVO) [ 744 MB ] Шестеро вне закона / Призрачная шестерка / 6 Underground [2019 WEB-DLRip] DUB [Пифагор] bober100 Скачать
1 | 0
Фильмы 2019-2020 [DVDrip, WEB-DLRip, HDrip] (DUB, MVO) [ 2.68 GB ] Шестеро вне закона / Призрачная шестерка / 6 Underground [2019 WEB-DLRip-AVC] DUB [Пифагор] bober100 Скачать
3 | 0

28-11-2019 20:33  

Отключить вcю реклaмy на сайте

21-12-2019 11:35 Шестеро вне закона Скачать торрент  

Пижонская бредятинаpb.wtf



26-12-2019 17:53 Шестеро вне закона Скачать торрент  

кежлытьpb.wtf



10-01-2020 20:46 Шестеро вне закона Скачать торрент  

Эффекты здоровские, мясо и кровушка по всему экрану. Но сюжет писаный на коленке за вечер на листике формата А4. Муть.pb.wtf



    Дорогой пользователь! Огромная просьба, поблагодарите релизера, оцените раздачу и оставьте свои комментарий, если Вы скачали Шестеро вне закона через торрент бесплатно!
    Комментировать посты могут только пользователи прошедшие не сложную регистрацию
    Показать сообщения:    

    Шестеро вне закона через торрент
    Скачать бесплатно Шестеро вне закона
    Шестеро вне закона скачать торрент
    Шестеро вне закона смотреть онлайн
    Cкачать фильм Шестеро вне закона бесплатно
    Шестеро вне закона скачать торрент в хорошем качестве
    Шестеро вне закона смотреть онлайн бесплатно в хорошем качестве


    Вы не можете начинать темы
    Вы не можете отвечать на сообщения
    Вы не можете редактировать свои сообщения
    Вы не можете удалять свои сообщения
    Вы не можете голосовать в опросах
    Вы не можете прикреплять файлы к сообщениям
    Вы можете скачивать файлы