Всегда рабочее зеркало без VPN и Proxy просто перед .vidak.icu напиши любое слово или цифру, Пример http://a21y.vidak.icu

MVO

2 сезон

1 сезон

1

1 сезон

iTunes

2 сезон

13

1 сезон

Deluxe

pack

Рекомендуем

Пиратка

30

ВАЖНО

RePack

MK11

RePack

jed

RePack

fifa19

RePack

RDR2

RePack

NEED FOR SPEED™ PAYBACK

Кинопоиск HD

6 сезон

 Острые козырьки 6 сезон

Все сериалы

все сериалы на PB.wtf

RePack

FAR CRY 5

Anonymous, нам критически не хватает 5601 руб. на оплату серверов и переферии за Апрель, помоги нам пожалуйста, вся надежда только на тебя. В благодарность мы отключим тебе всю рекламу на сайте!

×
  
Magnet ссылка

Джокер / Joker (Тодд Филлипс) [2019, Триллер, драма, криминал, BDRip 1080p] DUB [Лицензия] (rus, ukr) +MVO [HDRezka Studio] +AVO [М. Чадов] pb.wtf

Джокер через торрент pb.wtf

Раздают: 4 [ 174 KB/s ]
Размер: 11.56 GB | Добавлен: 2 года 4 мес. назад | Торрент скачан:1847 раз
Смотреть онлайн Джокер | Скачать    Ребята, помогите собрать деньги на оплату серверов!!!

19-12-2019 12:39 Джокер Скачать торрент  

Джокер / Joker
Год выпуска: 2019
Страна: Канада, США
Студия: Warner Bros., Village Roadshow Pictures, DC Entertainment, DC Comics, 22 & Indiana Pictures
Жанр: Триллер, драма, криминал
Продолжительность: 02:01:49
Перевод:
#1: Дублированный | Лицензия
#2: Профессиональный (многоголосый) | HDRezka Studio
#3: Авторский | Чадов
Субтитры: Русские (Forced, full [iTunes]), (Forced, full [Enigma]), английские

Режиссер: Тодд Филлипс

rating

В ролях:

Хоакин Феникс (Arthur Fleck), Роберт Де Ниро (Murray Franklin), Зази Битц (Sophie Dumond), Фрэнсис Конрой (Penny Fleck), Бретт Каллен (Thomas Wayne), Шей Уигэм (Detective Burke), Билл Кэмп (Detective Garrity), Гленн Флешлер (Randall), Ли Гилл (Gary), Джош Пэйс (Hoyt Vaughn), Рокко Луна (GiGi Dumond), Марк Мэрон (Gene Ufland)
Описание: Готэм, начало 1980-х годов. Комик Артур Флек живет с больной матерью, которая с детства учит его «ходить с улыбкой». Пытаясь нести в мир хорошее и дарить людям радость, Артур сталкивается с человеческой жестокостью и постепенно приходит к выводу, что этот мир получит от него не добрую улыбку, а ухмылку злодея Джокера.

Качество: BDRip 1080p
Формат: MKV

Видео: MPEG-4 AVC, 1920x1038, 10.6 Mbit/s, 23.976 fps
Аудио #01: 48 kHz, AC3, 5.1, 448 Kbps | Дублированный | RUS |
Аудио #02: 48 kHz, AC3, 2.0, 192 Kbps | HDRezka Studio | RUS |
Аудио #03: 48 kHz, AC3, 5.1, 640 Kbps | Авторский | RUS |
Аудио #04: 48 kHz, DTS, 5.1, 1510 Kbps | Авторский | RUS |
Аудио #03: 48 kHz, AC3, 2.0, 160 Kbps | Дублированный | UKR |
Аудио #04: 48 kHz, AC3, 5.1, 640 Kbps | Оригинал | ENG |
скриншот  скриншот  скриншот  скриншот  скриншот  

General
Unique ID : 38592177184670539324022483529640503459 (0x1D08953D40EAC17908A51FCAA0F4E8A3)
Complete name : H:Video222Joker.2019.Lic.BDRip.1080p.seleZen.mkv
Format : Matroska
Format version : Version 4
File size : 11.6 GiB
Duration : 2 h 1 min
Overall bit rate : 13.6 Mb/s
Movie name : Joker 2019 from селезень
Encoded date : UTC 2019-12-27 09:58:10
Writing application : mkvmerge v40.0.0 ('Old Town Road + Pony') 64-bit
Writing library : libebml v1.3.9 + libmatroska v1.5.2

Video
ID : 1
Format : AVC
Format/Info : Advanced Video Codec
Format profile : High@L4.1
Format settings : CABAC / 4 Ref Frames
Format settings, CABAC : Yes
Format settings, Reference : 4 frames
Codec ID : V_MPEG4/ISO/AVC
Duration : 2 h 1 min
Bit rate : 10 000 kb/s
Width : 1 920 pixels
Height : 1 038 pixels
Display aspect ratio : 1.85:1
Frame rate mode : Constant
Frame rate : 23.976 (24000/1001) FPS
Color space : YUV
Chroma subsampling : 4:2:0
Bit depth : 8 bits
Scan type : Progressive
Bits/(Pixel*Frame) : 0.209
Stream size : 8.50 GiB (74%)
Title : Encoded by seleZen
Writing library : x264 core 148 r2705kMod 3f5ed56
Encoding settings : cabac=1 / ref=4 / deblock=1:-2:-2 / analyse=0x3:0x113 / me=umh / subme=11 / psy=1 / fade_compensate=0.00 / psy_rd=1.03:0.05 / mixed_ref=1 / me_range=32 / chroma_me=1 / trellis=2 / 8x8dct=1 / cqm=0 / deadzone=21,11 / fast_pskip=0 / chroma_qp_offset=-3 / threads=24 / lookahead_threads=6 / sliced_threads=0 / nr=0 / decimate=0 / interlaced=0 / bluray_compat=0 / constrained_intra=0 / fgo=0 / bframes=10 / b_pyramid=2 / b_adapt=2 / b_bias=0 / direct=3 / weightb=1 / open_gop=0 / weightp=2 / keyint=240 / keyint_min=23 / scenecut=40 / intra_refresh=0 / rc_lookahead=50 / rc=2pass / mbtree=0 / bitrate=10000 / ratetol=1.0 / qcomp=0.60 / qpmin=0 / qpmax=51 / qpstep=4 / cplxblur=20.0 / qblur=0.5 / vbv_maxrate=50000 / vbv_bufsize=62500 / nal_hrd=none / filler=0 / ip_ratio=1.40 / pb_ratio=1.30 / aq=3:0.80
Language : English
Default : Yes
Forced : No

Audio #1
ID : 2
Format : AC-3
Format/Info : Audio Coding 3
Commercial name : Dolby Digital
Codec ID : A_AC3
Duration : 2 h 1 min
Bit rate mode : Constant
Bit rate : 448 kb/s
Channel(s) : 6 channels
Channel layout : L R C LFE Ls Rs
Sampling rate : 48.0 kHz
Frame rate : 31.250 FPS (1536 SPF)
Bit depth : 16 bits
Compression mode : Lossy
Stream size : 390 MiB (3%)
Title : Dub [License]
Language : Russian
Service kind : Complete Main
Default : Yes
Forced : Yes

Audio #2
ID : 3
Format : AC-3
Format/Info : Audio Coding 3
Commercial name : Dolby Digital
Codec ID : A_AC3
Duration : 2 h 1 min
Bit rate mode : Constant
Bit rate : 192 kb/s
Channel(s) : 2 channels
Channel layout : L R
Sampling rate : 48.0 kHz
Frame rate : 31.250 FPS (1536 SPF)
Bit depth : 16 bits
Compression mode : Lossy
Stream size : 167 MiB (1%)
Title : MVO [HDRezka Studio]
Language : Russian
Service kind : Complete Main
Default : No
Forced : No

Audio #3
ID : 4
Format : AC-3
Format/Info : Audio Coding 3
Commercial name : Dolby Digital
Codec ID : A_AC3
Duration : 2 h 1 min
Bit rate mode : Constant
Bit rate : 640 kb/s
Channel(s) : 6 channels
Channel layout : L R C LFE Ls Rs
Sampling rate : 48.0 kHz
Frame rate : 31.250 FPS (1536 SPF)
Bit depth : 16 bits
Compression mode : Lossy
Stream size : 558 MiB (5%)
Title : AVO [Chadov]
Language : Russian
Service kind : Complete Main
Default : No
Forced : No

Audio #4
ID : 5
Format : DTS
Format/Info : Digital Theater Systems
Codec ID : A_DTS
Duration : 2 h 1 min
Bit rate mode : Constant
Bit rate : 1 509 kb/s
Channel(s) : 6 channels
Channel layout : C L R Ls Rs LFE
Sampling rate : 48.0 kHz
Frame rate : 93.750 FPS (512 SPF)
Bit depth : 24 bits
Compression mode : Lossy
Stream size : 1.28 GiB (11%)
Title : AVO [Chadov]
Language : Russian
Default : No
Forced : No

Audio #5
ID : 6
Format : AC-3
Format/Info : Audio Coding 3
Commercial name : Dolby Digital
Codec ID : A_AC3
Duration : 2 h 1 min
Bit rate mode : Constant
Bit rate : 160 kb/s
Channel(s) : 2 channels
Channel layout : L R
Sampling rate : 48.0 kHz
Frame rate : 31.250 FPS (1536 SPF)
Bit depth : 16 bits
Compression mode : Lossy
Stream size : 139 MiB (1%)
Title : iTunes
Language : Ukrainian
Service kind : Complete Main
Default : No
Forced : No

Audio #6
ID : 7
Format : AC-3
Format/Info : Audio Coding 3
Commercial name : Dolby Digital
Codec ID : A_AC3
Duration : 2 h 1 min
Bit rate mode : Constant
Bit rate : 640 kb/s
Channel(s) : 6 channels
Channel layout : L R C LFE Ls Rs
Sampling rate : 48.0 kHz
Frame rate : 31.250 FPS (1536 SPF)
Bit depth : 16 bits
Compression mode : Lossy
Stream size : 558 MiB (5%)
Title : Original
Language : English
Service kind : Complete Main
Default : No
Forced : No

Text #1
ID : 8
Format : UTF-8
Codec ID : S_TEXT/UTF8
Codec ID/Info : UTF-8 Plain Text
Duration : 1 h 54 min
Bit rate : 5 b/s
Count of elements : 72
Stream size : 4.41 KiB (0%)
Title : Forced
Language : Russian
Default : Yes
Forced : Yes

Text #2
ID : 9
Format : UTF-8
Codec ID : S_TEXT/UTF8
Codec ID/Info : UTF-8 Plain Text
Duration : 1 h 57 min
Bit rate : 75 b/s
Count of elements : 1108
Stream size : 64.8 KiB (0%)
Title : Full [iTunes]
Language : Russian
Default : No
Forced : No

Text #3
ID : 10
Format : UTF-8
Codec ID : S_TEXT/UTF8
Codec ID/Info : UTF-8 Plain Text
Duration : 1 h 54 min
Bit rate : 8 b/s
Count of elements : 101
Stream size : 7.51 KiB (0%)
Title : Forced [Enigma]
Language : Russian
Default : No
Forced : No

Text #4
ID : 11
Format : UTF-8
Codec ID : S_TEXT/UTF8
Codec ID/Info : UTF-8 Plain Text
Duration : 1 h 55 min
Bit rate : 79 b/s
Count of elements : 1221
Stream size : 67.5 KiB (0%)
Title : Full [Enigma]
Language : Russian
Default : No
Forced : No

Text #5
ID : 12
Format : UTF-8
Codec ID : S_TEXT/UTF8
Codec ID/Info : UTF-8 Plain Text
Duration : 1 h 54 min
Bit rate : 44 b/s
Count of elements : 1326
Stream size : 36.9 KiB (0%)
Title : Full
Language : English
Default : No
Forced : No

Text #6
ID : 13
Format : UTF-8
Codec ID : S_TEXT/UTF8
Codec ID/Info : UTF-8 Plain Text
Duration : 1 h 58 min
Bit rate : 55 b/s
Count of elements : 1735
Stream size : 47.9 KiB (0%)
Title : SDH
Language : English
Default : No
Forced : No

Menu
00:00:01.700 : en:Studio Logo
00:00:15.700 : en:Makeup
00:01:32.700 : en:Broken Sign
00:03:43.700 : en:Therapy
00:07:42.700 : en:Bus
00:09:15.700 : en:Meeting Murray
00:15:21.700 : en:Protection
00:19:13.700 : en:Enter Sophie
00:21:01.700 : en:Bath
00:23:34.700 : en:Following
00:24:53.700 : en:Comedy Scout
00:26:01.700 : en:Invite
00:27:59.700 : en:Hospital Gig
00:29:23.700 : en:Subway Scuffle
00:34:10.700 : en:Fleeing
00:36:14.700 : en:First Kiss
00:36:46.700 : en:Punching Out
00:38:14.700 : en:Wayne Interview
00:39:56.700 : en:Negative Thoughts
00:42:14.700 : en:Open Mic
00:45:15.700 : en:Date
00:46:21.700 : en:Letter to Wayne
00:50:23.700 : en:Clipping
00:51:12.700 : en:Wayne Manor
00:55:16.700 : en:Emergency
00:56:19.700 : en:Detectives
00:58:32.700 : en:Arthur on T.V.
01:01:01.700 : en:Protest Coverage
01:02:18.700 : en:Meeting Wayne
01:07:11.700 : en:Invitation
01:09:36.700 : en:Arkham
01:13:26.700 : en:Penny's File
01:15:41.700 : en:Sophie's Place
01:19:49.700 : en:Life's a Comedy
01:22:12.700 : en:Practice
01:24:28.700 : en:Randall and Gary visit Arthur
01:30:15.700 : en:Stairwell Waltz
01:34:51.700 : en:Dressing Room
01:37:02.700 : en:Arthur's Big Moment
01:46:35.700 : en:Riot
01:49:05.700 : en:Crime Alley
01:50:02.700 : en:Joker's Fans
01:52:33.700 : en:Thinking of a Joke
01:55:39.700 : en:End Credits

pb.wtf



Скачать Джокер через торрент https://img16.lostpic.net/2019/12/17/6624523db737b421b387b852e2b63bf8.jpg Скачать, смотреть онлайн Джокер бесплантно в хорошем качестве Описание: Готэм, начало 1980-х годов. Комик Артур Флек живет с больной матерью, которая с детства учит его «ходить с улыбкой». Пытаясь ... 9.7 10 38
Info! Золотая раздача, скачанное не засчитывается.
Торрент: Зарегистрирован [2019-12-27 23:35] · скачан: 1 847 раз
Статус: √ проверено
Размер: 11.56 GB
Как cкачать? Как скачать Джокер через торрент | UTorrent

% Раздел Тема Автор DL S | L
Ultra HD (UHD: 2K, 4K, 8K) — видео сверхвысокой чёткости [ 39.62 GB ] Джокер / Joker [2019 UHD BDRip 2160p] [SDR] DUB [] +MVO [HDRezka Studio] + AVO [М. Чадов] bober100 Скачать
1 | 0
Ultra HD (UHD: 2K, 4K, 8K) — видео сверхвысокой чёткости [ 43.15 GB ] Джокер / Joker [2019 UHD BDRemux 2160p] [Dolby Vision TV] DUB [] +MVO [HDRezka Studio] bober100 Скачать
1 | 0
Ultra HD (UHD: 2K, 4K, 8K) — видео сверхвысокой чёткости [ 56.03 GB ] Джокер / Joker [2019 UHD BDRemux 2160p] [Dolby Vision] DUB [] +MVO [HDRezka Studio] bober100 Скачать
1 | 0
Ultra HD (UHD: 2K, 4K, 8K) — видео сверхвысокой чёткости [ 52.06 GB ] Джокер / Joker [2019 UHD BDRemux 2160p] DUB [] + MVO [HDRezka Studio] + AVO [М. Чадов] sheker187 Скачать
1 | 0
Ultra HD (UHD: 2K, 4K, 8K) — видео сверхвысокой чёткости [ 15.39 GB ] Джокер / Joker [2019 UHD BDRip 2160p] DUB + MVO [HDRezka Studio] + AVO [М. Чадов] sheker187 Скачать
2 | 0
Фильмы (Blu-ray, BD-Remux, HDDVD) [ 26.19 GB ] Джокер / Joker [2019 BD Remux 1080p] DUB [] +MVO [HDRezka Studio] +AVO [М. Чадов] bober100 Скачать
1 | 0
Фильмы [HD 720p, 1080p] (Хороший звук DUB, MVO) [ 7.31 GB ] Джокер / Joker [2019 BDRip 720p] DUB [] +MVO [HDRezka Studio] +AVO [М. Чадов] bober100 Скачать
1 | 0


Последний раз редактировалось: bober100 (2019-12-27 23:34), всего редактировалось 5 раз(а)

28-11-2019 20:33  

Отключить всю рекламу на сайте

20-12-2019 09:38 Джокер Скачать торрент  

AIRAT6 писал(а):

Кто смотрел? Как дела с переводом?

Смотрел в оригинале, но дубляж неплох. Несколько сцен, для сравнения, пересмотрел с ним.pb.wtf



29-12-2019 19:29 Джокер Скачать торрент  

бредятина полнаяpb.wtf



07-01-2020 17:20 Джокер Скачать торрент  

Ужас какой, фильм этот нужно смотреть, видимо, под влиянием тяжелых барбитуратов, иначе смысл не дойдет!pb.wtf



    Дорогой пользователь! Огромная просьба, поблагодарите релизера, оцените раздачу и оставьте свои комментарий, если Вы скачали Джокер через торрент бесплатно!
    Комментировать посты могут только пользователи прошедшие не сложную регистрацию
    Показать сообщения:    

    Джокер через торрент
    Скачать бесплатно Джокер
    Джокер скачать торрент
    Джокер смотреть онлайн
    Cкачать фильм Джокер бесплатно
    Джокер скачать торрент в хорошем качестве
    Джокер смотреть онлайн бесплатно в хорошем качестве


    Вы не можете начинать темы
    Вы не можете отвечать на сообщения
    Вы не можете редактировать свои сообщения
    Вы не можете удалять свои сообщения
    Вы не можете голосовать в опросах
    Вы не можете прикреплять файлы к сообщениям
    Вы можете скачивать файлы