>

5.6

iTunes

6.1

MVO

5.7

MVO

1

7.4

1 сезон

6.8

iTunes

7.2

1 сезон

13

6.7

1 сезон

8.3

RePack

30

Deluxe

pack

9.9

Лицензия

ВАЖНО

ИГРА 18+

pack

7.3

RePack

MK11

7.7

RePack

jed

7.8

RePack

fifa19

8.5

RePack

RDR2

RePack

NEED FOR SPEED™ PAYBACK

4 сезон

9 сезон

Бесстыжие 9 сезон

Все сериалы

все сериалы на PB.wtf

RePack

FAR CRY 5

Anonymous, доброе утро, мы катастрофически не успеваем собрать деньги на оплату серверов, помогите нам пожалуйста 5,10,15р., для нас важна любая помощь . В качестве благодарности мы отключим Вам всю рекламу на сайте (укажите свой ник в строку Ваше имя)!

×
  
Magnet ссылка

Улицы крови / Streets of Blood (Чарльз Уинклер) [2009 г., триллер, драма, криминал, BDRip] DVO (R5), VO (Интер-Фильм) pb.wtf

Улицы крови через торрент pb.wtf

Размер: 2.06 GB | Добавлен: 1 год 9 мес. назад | Торрент скачан:4 раза
Смотреть онлайн Улицы крови | Скачать    Ребята, помогите собрать деньги на оплату серверов!!!

20-12-2019 09:05 Улицы крови Скачать торрент  

Улицы крови / Streets of Blood
Год выпуска: 2009

Страна: США

Жанр: Триллер, драма, криминал

Продолжительность: 01:34:56

Перевод: Профессиональный (двухголосый), любительский (двухголосый)

Режиссер: Чарльз Уинклер

rating

В ролях: Вэл Килмер, 50 Cent, Шэрон Стоун, Майкл Бин, Хосе Пабло Кантилльо, Брайан Прэсли, Бэрри Шебака Хенли, Дави Джей, Пилар Биггерс, Дарсел Уайт Морено, Ширли Бренер, Маркус М. Молдин, Марио Мимс, Дэвид Эндриол, Диего Дж. Мартинез, Ричард Ф Лоу, Джереми Джонсон

Описание: Город захлестнула волна криминальных разборок между бандами, сбывающими наркотики. Остановить беспредел и выйти на наркотрафик пытаются полицейские, работу которых "тормозит" ФБР, подозревая их в коррупции. О каждом шаге детективов преступники знают заранее. Кто же "Крыса", которая сливает информацию и ведет двойную игру? На этот вопрос должны ответить полицейские и его напарник. На улицах города не должна литься кровь...
Качество: BDRip
Формат: AVI
Видео: XviD, 1736 Kбит/с, 720x384
Аудио#1: Русский, AC-3, 6 ch, 448 Кбит/с - DVO (R5)
Аудио#2: Русский, AC-3, 6 ch, 448 Кбит/с - любительский (двухголосый) (Интер-Фильм)
Аудио#3: Английский, AC-3, 6 ch, 448 Кбит/с
Видео
Идентификатор : 0
Формат : MPEG-4 Visual
Профиль формата : Advanced Simple@L5
Настройки формата : BVOP1 / Custom Matrix
Параметр BVOP формата : 1
Параметр QPel формата : Нет
Параметр GMC формата : Без точки перехода
Параметр матрицы формата : Выборочная
Режим смешивания : Сжатый битовый поток
Идентификатор кодека : XVID
Идентификатор кодека/Подсказка : XviD
Продолжительность : 1 ч. 34 м.
Битрейт : 1736 Кбит/сек
Ширина : 720 пикселей
Высота : 384 пикселя
Соотношение сторон : 1,85:1
Частота кадров : 23,976 (24000/1001) кадра/сек
Цветовое пространство : YUV
Субдискретизация насыщенности : 4:2:0
Битовая глубина : 8 бит
Тип развёртки : Прогрессивная
Метод сжатия : С потерями
Бит/(Пиксели*Кадры) : 0.262
Размер потока : 1,15 Гбайт (56%)
Библиотека кодирования : XviD 65

Аудио #1
Идентификатор : 1
Формат : AC-3
Формат/Информация : Audio Coding 3
Коммерческое название : Dolby Digital
Идентификатор кодека : 2000
Продолжительность : 1 ч. 34 м.
Вид битрейта : Постоянный
Битрейт : 448 Кбит/сек
Каналы : 6 каналов
ChannelLayout : L R C LFE Ls Rs
Частота : 48,0 КГц
Частота кадров : 31,250 кадров/сек (1536 SPF)
Битовая глубина : 16 бит
Метод сжатия : С потерями
Размер потока : 304 Мбайт (14%)
Выравнивание : Разделение по промежуткам
Продолжительность промежутка : 42 мс. (1,00 видеокадр)
Время предзагрузки промежутка : 500 мс.
Заголовок : Профессиональный (двухголосый закадровый) R5
ServiceKind/String : Complete Main

Аудио #2
Идентификатор : 2
Формат : AC-3
Формат/Информация : Audio Coding 3
Коммерческое название : Dolby Digital
Идентификатор кодека : 2000
Продолжительность : 1 ч. 34 м.
Вид битрейта : Постоянный
Битрейт : 448 Кбит/сек
Каналы : 6 каналов
ChannelLayout : L R C LFE Ls Rs
Частота : 48,0 КГц
Частота кадров : 31,250 кадров/сек (1536 SPF)
Битовая глубина : 16 бит
Метод сжатия : С потерями
Размер потока : 304 Мбайт (14%)
Выравнивание : Разделение по промежуткам
Продолжительность промежутка : 42 мс. (1,00 видеокадр)
Время предзагрузки промежутка : 500 мс.
Заголовок : Любительский (двухголосый, закадровый)
ServiceKind/String : Complete Main

Аудио #3
Идентификатор : 3
Формат : AC-3
Формат/Информация : Audio Coding 3
Коммерческое название : Dolby Digital
Идентификатор кодека : 2000
Продолжительность : 1 ч. 34 м.
Вид битрейта : Постоянный
Битрейт : 448 Кбит/сек
Каналы : 6 каналов
ChannelLayout : L R C LFE Ls Rs
Частота : 48,0 КГц
Частота кадров : 31,250 кадров/сек (1536 SPF)
Битовая глубина : 16 бит
Метод сжатия : С потерями
Размер потока : 304 Мбайт (14%)
Выравнивание : Разделение по промежуткам
Продолжительность промежутка : 42 мс. (1,00 видеокадр)
Время предзагрузки промежутка : 500 мс.
Заголовок : Оригинал (Английский)
ServiceKind/String : Complete Main

скриншот   скриншот   скриншот   скриншот   скриншот  

pb.wtf



Скачать Улицы крови через торрент https://pic1.kartinco.top/images/12/mwnqa.jpg Скачать, смотреть онлайн Улицы крови бесплантно в хорошем качестве Описание: Город захлестнула волна криминальных разборок между бандами, сбывающими наркотики. Остановить беспредел и выйти на наркотрафик ... 10 10 1
Торрент: Зарегистрирован [2019-12-20 09:05] · скачан: 4 раз
Статус: √ проверено
Размер: 2.06 GB
Как cкачать? Как скачать Улицы крови через торрент | UTorrent

% Раздел Тема Автор DL S | L
Фильмы 2009 [ 743 MB ] Улицы крови / Streets of Blood [2009 HDRip] MVO -=Cherry=- Скачать
1 | 0
Фильмы (DVD фильмы) [ 3.65 GB ] Улицы крови / Streets of Blood [2009 DVD5] SKAV Скачать
1 | 0
Фильмы 2009 [ 1.37 GB ] Улицы крови  / Streets of Blood [2009 DVDRip] DEVI Скачать
1 | 0

28-11-2019 20:33  

Отключить всю рекламу на сайте

    Дорогой пользователь! Огромная просьба, поблагодарите релизера, оцените раздачу и оставьте свои комментарий, если Вы скачали Улицы крови через торрент бесплатно!
    Комментировать посты могут только пользователи прошедшие не сложную регистрацию
    Показать сообщения:    

    Улицы крови через торрент
    Скачать бесплатно Улицы крови
    Улицы крови скачать торрент
    Улицы крови смотреть онлайн
    Cкачать фильм Улицы крови бесплатно
    Улицы крови скачать торрент в хорошем качестве
    Улицы крови смотреть онлайн бесплатно в хорошем качестве


    Вы не можете начинать темы
    Вы не можете отвечать на сообщения
    Вы не можете редактировать свои сообщения
    Вы не можете удалять свои сообщения
    Вы не можете голосовать в опросах
    Вы не можете прикреплять файлы к сообщениям
    Вы можете скачивать файлы