Всегда рабочее зеркало просто перед .vidak.icu напиши любое слово или цифру, Пример http://2j9.vidak.icu

>

7.4

iTunes

7.4

2 сезон

9.4

1 сезон

1

7.4

2 сезон

7.2

iTunes

6.0

MVO

13

6.1

iTunes

8.3

Пиратка

30

ULTIMATE

pack

9.9

Лицензия

ВАЖНО

ИГРА 18+

pack

7.3

RePack

MK11

7.7

RePack

jed

7.8

RePack

fifa19

8.5

RePack

RDR2

RePack

NEED FOR SPEED™ PAYBACK

1 сезон

9 сезон

Бесстыжие 9 сезон

Все сериалы

все сериалы на PB.wtf

RePack

FAR CRY 5

Anonymous, доброе утро, мы катастрофически не успеваем собрать деньги на оплату серверов, помогите нам пожалуйста 5,10,15р., для нас важна любая помощь . В качестве благодарности мы отключим Вам всю рекламу на сайте (укажите свой ник в строку Ваше имя)!

×
  
Magnet ссылка

Солнцестояние / Midsommar (Ари Астер) [2019 г., ужасы, триллер, драма, BDRip] [Режиссерская версия / Director's Cut] AVO (Михаил Яроцкий) pb.wtf

Солнцестояние через торрент pb.wtf

Размер: 2.91 GB | Добавлен: 2 года назад | Торрент скачан:54 раза
Смотреть онлайн Солнцестояние | Скачать    Ребята, помогите собрать деньги на оплату серверов!!!

20-12-2019 12:26 Солнцестояние Скачать торрент  

Солнцестояние / Midsommar
Год выпуска: 2019

Страна: США, Швеция, Венгрия

Жанр: Ужасы, триллер, драма

Продолжительность: 02:50:15

Перевод: Авторский (одноголосый) - Михаил Яроцкий (ненормативная лексика)

Субтитры: Английские (форс.)

Режиссер: Ари Астер

rating

В ролях: Флоренс Пью, Джек Рейнор, Вильхельм Бломгрен, Уильям Джексон Харпер, Уилл Поултер, Эллора Торчия, Арчи Мадекве, Хенрик Норлен, Гуннель Фред, Изабель Грилл

Описание: День летнего солнцестояния - древний праздник, который во всех культурах окутан мистическим ореолом. В отрезанном от цивилизованного мира шведском поселении раз в 90 лет в этот день проводится уникальный обряд. Именно туда отправляется группа молодых американских антропологов. Однако вскоре после прибытия там начинает происходить нечто необъяснимое, и под светом солнца исследователям открывается настоящая тьма.
Доп. информация: Режиссерская версия / Director's Cut
Качество: BDRip
Формат: AVI
Видео: XviD, 1989 Кбит/с, 704x352
Аудио: Русский, AC-3, 6 ch, 448 Кбит/с
Видео
Идентификатор : 0
Формат : MPEG-4 Visual
Профиль формата : Advanced Simple@L5
Настройки формата : BVOP1 / Custom Matrix
Параметр BVOP формата : 1
Параметр QPel формата : Нет
Параметр GMC формата : Без точки перехода
Параметр матрицы формата : Выборочная
Идентификатор кодека : XVID
Идентификатор кодека/Подсказка : XviD
Продолжительность : 2 ч. 50 м.
Битрейт : 1989 Кбит/сек
Ширина : 704 пикселя
Высота : 352 пикселя
Соотношение сторон : 2,000
Частота кадров : 23,976 (24000/1001) кадра/сек
Цветовое пространство : YUV
Субдискретизация насыщенности : 4:2:0
Битовая глубина : 8 бит
Тип развёртки : Прогрессивная
Метод сжатия : С потерями
Бит/(Пиксели*Кадры) : 0.335
Размер потока : 2,37 Гбайт (81%)
Библиотека кодирования : XviD 73

Аудио
Идентификатор : 1
Формат : AC-3
Формат/Информация : Audio Coding 3
Коммерческое название : Dolby Digital
Идентификатор кодека : 2000
Продолжительность : 2 ч. 50 м.
Вид битрейта : Постоянный
Битрейт : 448 Кбит/сек
Каналы : 6 каналов
ChannelLayout : L R C LFE Ls Rs
Частота : 48,0 КГц
Частота кадров : 31,250 кадров/сек (1536 SPF)
Битовая глубина : 16 бит
Метод сжатия : С потерями
Размер потока : 546 Мбайт (18%)
Выравнивание : Разделение по промежуткам
Продолжительность промежутка : 42 мс. (1,00 видеокадр)
Время предзагрузки промежутка : 500 мс.
ServiceKind/String : Complete Main

скриншот   скриншот   скриншот   скриншот   скриншот  

pb.wtf



Скачать Солнцестояние через торрент https://pic1.kartinco.top/images/12/5876p.jpg Скачать, смотреть онлайн Солнцестояние бесплантно в хорошем качестве Описание: День летнего солнцестояния - древний праздник, который во всех культурах окутан мистическим ореолом. В отрезанном от ... 10 10 1
Торрент: Зарегистрирован [2019-12-20 12:26] · скачан: 54 раз
Статус: √ проверено
Размер: 2.91 GB
Как cкачать? Как скачать Солнцестояние через торрент | UTorrent

% Раздел Тема Автор DL S | L
Фильмы 2019-2020 [DVDrip, WEB-DLRip, HDrip] (DUB, MVO) [ 2.18 GB ] Солнцестояние / Midsommar [2019 BDRip] [Режиссерская версия] bober100 Скачать
1 | 0
Фильмы 2019-2020 [DVDrip, WEB-DLRip, HDrip] (DUB, MVO) [ 1.46 GB ] Солнцестояние / Midsommar [2019 BDRip] [Режиссерская версия] bober100 Скачать
1 | 0
Фильмы [HD 720p, 1080p] (Хороший звук DUB, MVO) [ 12.75 GB ] Солнцестояние / Midsommar [2019 BDRip 1080p] [Режиссерская версия] +2xAVO bober100 Скачать
1 | 0
Фильмы [HD 720p, 1080p] (Хороший звук DUB, MVO) [ 8.37 GB ] Солнцестояние / Midsommar [2019 BDRip 720p] [Режиссерская версия] +2xAVO bober100 Скачать
1 | 0
Фильмы 2019-2020 [DVDrip, WEB-DLRip, HDrip] (DUB, MVO) [ 2.84 GB ] Солнцестояние / Midsommar [2019 BDRip] [Режиссерская версия] bober100 Скачать
1 | 0
Ultra HD (UHD: 2K, 4K, 8K) — видео сверхвысокой чёткости [ 17.54 GB ] Солнцестояние / Midsommar [2019 UHD WEB-DL 2160p] DUB sheker187 Скачать
1 | 0
Ultra HD (UHD: 2K, 4K, 8K) — видео сверхвысокой чёткости [ 24.36 GB ] Солнцестояние / Midsommar [2019 UHD BDRip 2160p] DUB sheker187 Скачать
1 | 0

28-11-2019 20:33  

Отключить всю рекламу на сайте

20-12-2019 13:51 Солнцестояние Скачать торрент  

Безруков на постере))?pb.wtf



    Дорогой пользователь! Огромная просьба, поблагодарите релизера, оцените раздачу и оставьте свои комментарий, если Вы скачали Солнцестояние через торрент бесплатно!
    Комментировать посты могут только пользователи прошедшие не сложную регистрацию
    Показать сообщения:    

    Солнцестояние через торрент
    Скачать бесплатно Солнцестояние
    Солнцестояние скачать торрент
    Солнцестояние смотреть онлайн
    Cкачать фильм Солнцестояние бесплатно
    Солнцестояние скачать торрент в хорошем качестве
    Солнцестояние смотреть онлайн бесплатно в хорошем качестве


    Вы не можете начинать темы
    Вы не можете отвечать на сообщения
    Вы не можете редактировать свои сообщения
    Вы не можете удалять свои сообщения
    Вы не можете голосовать в опросах
    Вы не можете прикреплять файлы к сообщениям
    Вы можете скачивать файлы