Ссылка на приватное зеркало всего за 1$. Внимание количество ограничено!!!

iTunes

iTunes

iTunes

1

iTunes

iTunes

iTunes

WEBRip

iTunes

30
pack

$ от Little Big

ВАЖНО

!!Акция!!

Alien_RageХит недели

RePack

Resident Evil 21

ИГРА 18+

pack

RePack

jed

!!Акция!!

Alien_Rage

RePack

fifa19

RePack

Assassins Creed: Odyssey

RePack

NEED FOR SPEED™ PAYBACK

4 сезон

9 сезон

Бесстыжие 9 сезон

Все сериалы

все сериалы на PB.wtf

RePack

FAR CRY 5
  

Простой карандаш (Наталья Назарова) [2019 г., драма, WEB-DLRip, Не требуется Русский] pb.wtf

Простой карандаш через торрент pb.wtf

Размер: 700 MB | Добавлен: 7 мес. назад | Торрент скачан:73 раза
Скачать  

20-12-2019 18:21 Простой карандаш Скачать торрент  

Простой карандаш
Год выпуска: 2019
Страна: Россия / Киностудия Соль, Виктория Фильм
Жанр: драма
Продолжительность: 01:32:52
Перевод: Не требуется Русский

Режиссер: Наталья Назарова

rating

В ролях: Надежда Горелова, Владимир Мишуков, Александр Кольчевский, Кирилл Веселов, Олеся Иванцова, Александр Доронин, Алина Ходжеванова, Евгений Старцев

Описание: В размеренную жизнь провинциального городка врывается Антонина - гордая, красивая, смелая. Устроившись на работу школьной учительницей рисования, она узнает, что весь город держат в страхе местный хулиган и его старший брат, опасный преступник. Жители делают вид, что их жизнь такая, какой и должна быть, стараясь не высовываться, чтобы не нарваться на неприятности. Но Антонина не готова мириться с таким положением дел в городе.

Качество: WEB-DLRip
Формат: AVI
Видео кодек: DivX
Аудио кодек: MP3
Видео: 640x360 (1.78:1), 24.000 fps, DivX Codec 4.x ~916 kbps avg, 0.17 bit/pixel
Аудио: 48 kHz, MPEG Layer 3, 2 ch, ~128.00 kbps avg
скриншот   скриншот   скриншот   скриншот  

Общее
Полное имя : F:\ФИЛЬМЫ\Простой карандаш.2019.WEB-DLRip.700MB.avi
Формат : AVI
Формат/Информация : Audio Video Interleave
Размер файла : 700 Мбайт
Продолжительность : 1 ч. 32 м.
Общий поток : 1054 Кбит/сек
Программа кодирования : VirtualDubMod 1.5.10.3 | www.virtualdub-fr.org || (build 2550/release)
Библиотека кодирования : VirtualDubMod build 2550/release

Видео
Идентификатор : 0
Формат : MPEG-4 Visual
Профиль формата : Advanced Simple@L5
Настройки формата : BVOP3 / GMC3 / QPel
Параметр BVOP формата : 3
Параметр QPel формата : Да
Параметр GMC формата : 3 точки перехода
Параметр матрицы формата : Default (MPEG)
Идентификатор кодека : DIVX
Идентификатор кодека/Информация : Project Mayo
Идентификатор кодека/Подсказка : DivX 4
Продолжительность : 1 ч. 32 м.
Битрейт : 916 Кбит/сек
Ширина : 640 пикселей
Высота : 360 пикселей
Соотношение сторон : 16:9
Частота кадров : 24,000 кадра/сек
Цветовое пространство : YUV
Субдискретизация насыщенности : 4:2:0
Битовая глубина : 8 бит
Тип развёртки : Прогрессивная
Метод сжатия : С потерями
Бит/(Пиксели*Кадры) : 0.166
Размер потока : 609 Мбайт (87%)
Библиотека кодирования : XviD 1.2.1 (UTC 2008-12-04)

Аудио
Идентификатор : 1
Формат : MPEG Audio
Версия формата : Version 1
Профиль формата : Layer 3
Настройки формата : Joint stereo / MS Stereo
Идентификатор кодека : 55
Идентификатор кодека/Подсказка : MP3
Продолжительность : 1 ч. 32 м.
Вид битрейта : Постоянный
Битрейт : 128 Кбит/сек
Каналы : 2 канала
Частота : 48,0 КГц
Частота кадров : 41,667 кадра/сек (1152 SPF)
Метод сжатия : С потерями
Размер потока : 85,0 Мбайт (12%)
Выравнивание : Соединение по промежуткам
Продолжительность промежутка : 42 мс. (1,00 видеокадр)
Время предзагрузки промежутка : 504 мс.
Библиотека кодирования : LAME3.99r
Настройки программы : -m j -V 4 -q 2 -lowpass 17 -b 128

pb.wtf



Скачать Простой карандаш через торрент http://pic1.kartinco.top/images/12/lk1c7.jpg Скачать фильм Простой карандаш через торрент бесплантно в хорошем качестве Описание: В размеренную жизнь провинциального городка врывается Антонина - гордая, красивая, смелая. Устроившись на работу школьной ... 10 10 6
Торрент: Зарегистрирован [2019-12-20 18:21] · скачан: 73 раз
Статус: √ проверено
Размер: 700 MB
Как cкачать? Как скачать Простой карандаш через торрент | qTorrent

% Раздел Тема Автор DL S | L
Наши фильмы (HD, WEB-DL 720p, 1080p) [ 3.58 GB ] Простой карандаш [2019 WEB-DL 1080p] bober100 Скачать
2 | 0
Наши новые фильмы 2018-2019 [ 1.46 GB ] Простой карандаш [2019 WEB-DLRip] bober100 Скачать
2 | 0
Фото Разное [ 52 MB ] Девушки нарисованные простым карандашом [439штJPEG 323x400-1398x1700] Anonymous Скачать
1 | 0

28-11-2019 20:33  

Отключить всю рекламу на сайте

20-12-2019 20:26 Простой карандаш Скачать торрент  

Хороший фильм с драматическим окончаниемpb.wtf



    Дорогой пользователь! Огромная просьба, поблагодарите релизера, оцените раздачу и оставьте свои комментарий, если Вы скачали Простой карандаш через торрент бесплатно! Внесите свою лепту в развитие PiratBit!
    Комментировать посты могут только пользователи прошедшие не сложную регистрацию
    Показать сообщения:    

    Простой карандаш через торрент
    Скачать бесплатно Простой карандаш
    Простой карандаш скачать торрент
    Простой карандаш смотреть онлайн
    Cкачать фильм Простой карандаш бесплатно
    Простой карандаш скачать торрент в хорошем качестве
    Простой карандаш смотреть онлайн бесплатно в хорошем качестве


    Вы не можете начинать темы
    Вы не можете отвечать на сообщения
    Вы не можете редактировать свои сообщения
    Вы не можете удалять свои сообщения
    Вы не можете голосовать в опросах
    Вы не можете прикреплять файлы к сообщениям
    Вы можете скачивать файлы