Ссылка на приватное зеркало нашего сайта всего за 1$. Внимание количество ограничено!!!

2 сезон

iTunes

1 сезон

1

iTunes

iTunes

iTunes

1 сезон

RePack

30

ИГРА 18+

pack

ВАЖНО

!!Акция!!

Alien_RageХит недели

RePack

MK11
pack

Забери бонус

RePack

jed

!!Акция!!

Alien_Rage

RePack

fifa19

RePack

Assassins Creed: Odyssey

RePack

NEED FOR SPEED™ PAYBACK

4 сезон

9 сезон

Бесстыжие 9 сезон

Все сериалы

все сериалы на PB.wtf

RePack

FAR CRY 5
  

Умка на ёлке (Александр Воробьёв) [2019, мультфильм, детский, компьютерная анимация, WEB-DL 1080p] pb.wtf

Умка на ёлке через торрент pb.wtf

Раздают: 1 [ 0 KB/s ]
Размер: 280 MB | Добавлен: 10 мес. назад | Торрент скачан:37 раз
Скачать  

20-12-2019 18:50 Умка на ёлке Скачать торрент  

Умка на ёлке

Год выпуска: 2019
Страна: Россия
Жанр: мультфильм, детский, компьютерная анимация
Продолжительность: 00:07:17
Перевод: Не требуется [Русский]
Режиссер: Александр Воробьёв
В ролях:
Лариса Брохман, Андрей Тенетко, Мария Конева, Валерия Шевченко, Марфа Иванова, Федор Парамонов, Михаил Погодин
Описание:
Маленький белый медвежонок с большим сердцем Умка однажды отправился на поиски уехавшего друга. Покинув маму, Умка преодолел долгий путь, но не забыл о своем обещании вернуться домой. Студия «Союзмультфильм» представляет заключительную часть знаменитой зимней мульттрилогии о приключениях самого очаровательного медвежонка на всем Северном полюсе. Пятьдесят лет прошло с момента первого появления Умки в классическом мультфильме Владимира Попова и Владимира Пекаря по сценарию Юрия Яковлева. За это время искренний и милый герой полюбился нескольким поколениям советских и российских детей, но ничуть не постарел и пронес сквозь года свою доброту и тепло.
Однажды у белого медвежонка Умки появился верный товарищ-мальчик. Когда взрослые увезли его куда-то далеко, Умка затосковал и решил разыскать друга. Смелый медвежонок совершил полет на вертолете, пробрался на полярную станцию и познакомился с другими «человеческими медвежатами». А у людей сейчас – Новогодняя елка! Во время праздника особенно хочется обнять своих самых любимых и близких… Умка понимает, что его большое путешествие подходит к концу.
Качество: WEB-DL 1080p
Формат: MKV
Видео: AVC, 1920x1080 (16:9), 5120 kbps, 25 fps, 0,099 bpp
Аудио: русский / AAC LC / 2.0 / 48 kHz / 256 kbps / |оригинал|
General
Unique ID : 199458423015934197233198096729548286861 (0x960E4B82261D5CE92F1A9CA375086B8D)
Complete name : D:\Умка на ёлке (1080p).mkv
Format : Matroska
Format version : Version 4 / Version 2
File size : 280 MiB
Duration : 7 min
Overall bit rate : 5 369 kb/s
Encoded date : UTC 2019-12-18 01:12:48
Writing application : mkvmerge v41.0.0 ('Smarra') 32-bit
Writing library : libebml v1.3.9 + libmatroska v1.5.2

Video
ID : 1
Format : AVC
Format/Info : Advanced Video Codec
Format profile : High@L4
Format settings, CABAC : Yes
Format settings, ReFrames : 4 frames
Codec ID : V_MPEG4/ISO/AVC
Duration : 7 min
Bit rate : 5 120 kb/s
Width : 1 920 pixels
Height : 1 080 pixels
Display aspect ratio : 16:9
Frame rate mode : Constant
Frame rate : 25.000 FPS
Color space : YUV
Chroma subsampling : 4:2:0
Bit depth : 8 bits
Scan type : Progressive
Bits/(Pixel*Frame) : 0.099
Stream size : 266 MiB (95%)
Title : Natasha77_NoNaMe Club
Writing library : x264 core 148
Encoding settings : cabac=1 / ref=3 / deblock=1:0:0 / analyse=0x3:0x113 / me=hex / subme=7 / psy=1 / psy_rd=1.00:0.00 / mixed_ref=1 / me_range=16 / chroma_me=1 / trellis=1 / 8x8dct=1 / cqm=0 / deadzone=21,11 / fast_pskip=1 / chroma_qp_offset=-2 / threads=34 / lookahead_threads=5 / sliced_threads=0 / nr=0 / decimate=1 / interlaced=0 / bluray_compat=0 / constrained_intra=0 / bframes=6 / b_pyramid=2 / b_adapt=1 / b_bias=0 / direct=1 / weightb=1 / open_gop=0 / weightp=2 / keyint=50 / keyint_min=26 / scenecut=0 / intra_refresh=0 / rc_lookahead=40 / rc=2pass / mbtree=1 / bitrate=5120 / ratetol=1.0 / qcomp=0.60 / qpmin=0 / qpmax=69 / qpstep=4 / cplxblur=20.0 / qblur=0.5 / vbv_maxrate=7680 / vbv_bufsize=20480 / nal_hrd=none / filler=0 / ip_ratio=1.40 / aq=1:1.00
Language : Russian
Default : Yes
Forced : No

Audio
ID : 2
Format : AAC
Format/Info : Advanced Audio Codec
Format profile : LC
Codec ID : A_AAC
Duration : 7 min
Bit rate : 256 kb/s
Channel(s) : 2 channels
Channel positions : Front: L R
Sampling rate : 48.0 kHz
Frame rate : 46.875 FPS (1024 spf)
Compression mode : Lossy
Delay relative to video : -43 ms
Stream size : 13.3 MiB (5%)
Title : Natasha77_NoNaMe Club
Language : Russian
Default : Yes
Forced : No
pb.wtf



Скачать Умка на ёлке через торрент http://pic1.kartinco.top/images/12/hy3zq.jpg Скачать фильм Умка на ёлке через торрент бесплантно в хорошем качестве Описание: Маленький белый медвежонок с большим сердцем Умка однажды отправился на поиски уехавшего друга. Покинув маму, Умка преодолел ... 10 10 3
Торрент: Зарегистрирован [2019-12-20 18:50] · скачан: 37 раз
Статус: √ проверено
Размер: 280 MB
Как cкачать? Как скачать Умка на ёлке через торрент | qTorrent

% Раздел Тема Автор DL S | L
Наши мультфильмы [ 96 MB ] Умка на ёлке [2019 мультфильм детский компьютерная анимация WEB-DLRip] -Lexx- Скачать
1 | 0

28-11-2019 20:33  

Отключить всю рекламу на сайте

    Дорогой пользователь! Огромная просьба, поблагодарите релизера, оцените раздачу и оставьте свои комментарий, если Вы скачали Умка на ёлке через торрент бесплатно! Внесите свою лепту в развитие PiratBit!
    Комментировать посты могут только пользователи прошедшие не сложную регистрацию
    Показать сообщения:    

    Умка на ёлке через торрент
    Скачать бесплатно Умка на ёлке
    Умка на ёлке скачать торрент
    Умка на ёлке смотреть онлайн
    Cкачать фильм Умка на ёлке бесплатно
    Умка на ёлке скачать торрент в хорошем качестве
    Умка на ёлке смотреть онлайн бесплатно в хорошем качестве


    Вы не можете начинать темы
    Вы не можете отвечать на сообщения
    Вы не можете редактировать свои сообщения
    Вы не можете удалять свои сообщения
    Вы не можете голосовать в опросах
    Вы не можете прикреплять файлы к сообщениям
    Вы можете скачивать файлы