Ссылка на приватное зеркало нашего сайта всего за 1$. Внимание количество ограничено!!!

2 сезон

iTunes

1 сезон

1

2 сезон

2 сезон

iTunes

1 сезон

RePack

30

Новинка

ВАЖНО

ИГРА 18+

pack

RePack

MK11
pack

Забери бонус

RePack

jed

!!Акция!!

Alien_Rage

RePack

fifa19

RePack

Assassins Creed: Odyssey

RePack

NEED FOR SPEED™ PAYBACK

4 сезон

9 сезон

Бесстыжие 9 сезон

Все сериалы

все сериалы на PB.wtf

RePack

FAR CRY 5
  

Два Папы / The Two Popes (Фернанду Мейреллиш) [2019, Драма, комедия, биография, WEBRip 720p] DUB [Пифагор / Netflix] pb.wtf

Два Папы через торрент pb.wtf

Размер: 2.66 GB | Добавлен: 11 мес. назад | Торрент скачан:179 раз
Скачать  

20-12-2019 19:04 Два Папы Скачать торрент  

Два Папы / The Two Popes
Год выпуска: 2019
Страна: Великобритания, Италия, Аргентина, США
Студия: NetFlix
Жанр: Драма, комедия, биография
Продолжительность: 02:05:58
Перевод: Дублированный | Пифагор по заказуNetflix
Субтитры: Русские (Full), английские, испанские, французские, немецкие, итальянские | Нетфликс

Режиссер: Фернанду Мейреллиш

rating


В ролях: Джонатан Прайс, Энтони Хопкинс, Хуан Минухин, Сидни Коул, Thomas D Williams, Федерико Торре, Пабло Тримарчи, Walter Andrade, Juan Miguel Arias, Лисандро Фикс

Описание: История духовного пути и избрания Папы Римского Франциска, который в 2013 году неохотно сменил в Ватикане отрекшегося Папу Бенедикта XVI. Два самых влиятельных лидера католической церкви пытаются каждый по-своему укрепить в вере современный мир и самих себя.

Качество: WEBRip 720p
Формат: MKV

Видео: MPEG-4 AVC, 1960 Kбит/с, 1280x720, 24.000 кадр/с
Аудио #01: 48 kHz, AC3, 5.1, 448 Kbps | Дублированный | RUS |
Аудио #02: 48 kHz, AC3, 5.1, 640 Kbps | Оригинал | ENG |
скриншот  скриншот  скриншот  скриншот  скриншот  

Источник: The.Two.Popes.2019.INTERNAL.720p.WEB.x264-STRiFE
General
Unique ID : 229934221967689753952950100718366041846 (0xACFBB867B939716BAA41C350048D26F6)
Complete name : The.Two.Popes.2019.WEBRip.720p.mkv
Format : Matroska
Format version : Version 4
File size : 2.66 GiB
Duration : 2 h 5 min
Overall bit rate mode : Variable
Overall bit rate : 3 020 kb/s
Encoded date : UTC 2019-12-20 17:29:02
Writing application : mkvmerge v7.1.0 ('Good Love') 64bit built on Jul 27 2014 13:06:55
Writing library : libebml v1.3.0 + libmatroska v1.4.1

Video
ID : 1
Format : AVC
Format/Info : Advanced Video Codec
Format profile : Main@L3.1
Format settings : CABAC / 3 Ref Frames
Format settings, CABAC : Yes
Format settings, Reference fra : 3 frames
Codec ID : V_MPEG4/ISO/AVC
Duration : 2 h 5 min
Bit rate mode : Variable
Bit rate : 1 960 kb/s
Maximum bit rate : 2 940 kb/s
Width : 1 280 pixels
Height : 720 pixels
Display aspect ratio : 16:9
Frame rate mode : Constant
Frame rate : 24.000 FPS
Color space : YUV
Chroma subsampling : 4:2:0
Bit depth : 8 bits
Scan type : Progressive
Bits/(Pixel*Frame) : 0.089
Stream size : 1.70 GiB (64%)
Writing library : x264 core 148 r2715 7e75228
Encoding settings : cabac=1 / ref=3 / deblock=1:0:0 / analyse=0x1:0x111 / me=umh / subme=10 / psy=1 / psy_rd=1.00:0.00 / mixed_ref=1 / me_range=24 / chroma_me=1 / trellis=2 / 8x8dct=0 / cqm=0 / deadzone=21,11 / fast_pskip=1 / chroma_qp_offset=-2 / threads=6 / lookahead_threads=1 / sliced_threads=0 / nr=0 / decimate=1 / interlaced=0 / bluray_compat=0 / stitchable=1 / constrained_intra=0 / bframes=2 / b_pyramid=0 / b_adapt=2 / b_bias=0 / direct=3 / weightb=1 / open_gop=0 / weightp=2 / keyint=250 / keyint_min=24 / scenecut=0 / intra_refresh=0 / rc_lookahead=48 / rc=2pass / mbtree=1 / bitrate=1960 / ratetol=1.0 / qcomp=0.50 / qpmin=6 / qpmax=51 / qpstep=4 / cplxblur=20.0 / qblur=0.5 / vbv_maxrate=2940 / vbv_bufsize=3920 / nal_hrd=vbr / filler=0 / ip_ratio=1.40 / aq=1:1.00
Language : English
Default : Yes
Forced : No

Audio #1
ID : 2
Format : AC-3
Format/Info : Audio Coding 3
Commercial name : Dolby Digital
Codec ID : A_AC3
Duration : 2 h 5 min
Bit rate mode : Constant
Bit rate : 448 kb/s
Channel(s) : 6 channels
Channel layout : L R C LFE Ls Rs
Sampling rate : 48.0 kHz
Frame rate : 31.250 FPS (1536 SPF)
Compression mode : Lossy
Stream size : 404 MiB (15%)
Language : Russian
Service kind : Complete Main
Default : Yes
Forced : No

Audio #2
ID : 3
Format : AC-3
Format/Info : Audio Coding 3
Commercial name : Dolby Digital
Codec ID : A_AC3
Duration : 2 h 5 min
Bit rate mode : Constant
Bit rate : 640 kb/s
Channel(s) : 6 channels
Channel layout : L R C LFE Ls Rs
Sampling rate : 48.0 kHz
Frame rate : 31.250 FPS (1536 SPF)
Compression mode : Lossy
Stream size : 577 MiB (21%)
Language : English
Service kind : Complete Main
Default : No
Forced : No

Text #1
ID : 4
Format : UTF-8
Codec ID : S_TEXT/UTF8
Codec ID/Info : UTF-8 Plain Text
Duration : 2 h 4 min
Bit rate : 88 b/s
Count of elements : 1711
Stream size : 81.3 KiB (0%)
Title : Russian
Language : Russian
Default : Yes
Forced : No

Text #2
ID : 5
Format : UTF-8
Codec ID : S_TEXT/UTF8
Codec ID/Info : UTF-8 Plain Text
Duration : 2 h 5 min
Bit rate : 77 b/s
Count of elements : 2273
Stream size : 70.9 KiB (0%)
Title : English
Language : English
Default : No
Forced : No

Text #3
ID : 6
Format : UTF-8
Codec ID : S_TEXT/UTF8
Codec ID/Info : UTF-8 Plain Text
Duration : 2 h 4 min
Bit rate : 54 b/s
Count of elements : 1775
Stream size : 49.9 KiB (0%)
Title : German
Language : German
Default : No
Forced : No

Text #4
ID : 7
Format : UTF-8
Codec ID : S_TEXT/UTF8
Codec ID/Info : UTF-8 Plain Text
Duration : 2 h 4 min
Bit rate : 56 b/s
Count of elements : 1776
Stream size : 52.0 KiB (0%)
Title : French
Language : French
Default : No
Forced : No

Text #5
ID : 8
Format : UTF-8
Codec ID : S_TEXT/UTF8
Codec ID/Info : UTF-8 Plain Text
Duration : 2 h 4 min
Bit rate : 44 b/s
Count of elements : 1398
Stream size : 40.6 KiB (0%)
Title : European Spanish
Language : Spanish
Default : No
Forced : No

Text #6
ID : 9
Format : UTF-8
Codec ID : S_TEXT/UTF8
Codec ID/Info : UTF-8 Plain Text
Duration : 2 h 4 min
Bit rate : 52 b/s
Count of elements : 1681
Stream size : 48.3 KiB (0%)
Title : Italian
Language : Italian
Default : No
Forced : No

pb.wtf



Скачать Два Папы через торрент https://img15.lostpic.net/2019/12/20/73b11bfaca25e6712429adf714b19fde.jpg Скачать фильм Два Папы через торрент бесплантно в хорошем качестве Описание: История духовного пути и избрания Папы Римского Франциска, который в 2013 году неохотно сменил в Ватикане отрекшегося Папу ... 10 10 6
Торрент: Зарегистрирован [2019-12-20 19:04] · скачан: 179 раз
Статус: √ проверено
Размер: 2.66 GB
Как cкачать? Как скачать Два Папы через торрент | qTorrent

% Раздел Тема Автор DL S | L
Ultra HD (UHD: 2K, 4K, 8K) — видео сверхвысокой чёткости [ 12.78 GB ] Два Папы / The Two Popes [2019 биография UHD WEBRip 2160p] DUB [Пифагор / Netflix] +MVO [HDRezka Studio] bober100 Скачать
2 | 0
Фильмы 2019-2020 [DVDrip, WEB-DLRip, HDrip] (DUB, MVO) [ 1.46 GB ] Два Папы / The Two Popes [2019 биография WEB-DLRip] DUB [Пифагор / Netflix] bober100 Скачать
1 | 0
Фильмы 2019-2020 [DVDrip, WEB-DLRip, HDrip] (DUB, MVO) [ 2.18 GB ] Два Папы / The Two Popes [2019 биография WEB-DLRip] DUB [Пифагор / Netflix] bober100 Скачать
1 | 0
Фильмы (WEB-DL 720p, 1080p) [ 7.11 GB ] Два Папы / The Two Popes [2019 биография WEB-DL 1080p] DUB [Пифагор / Netflix] bober100 Скачать
2 | 0

28-11-2019 20:33  

Отключить всю рекламу на сайте

    Дорогой пользователь! Огромная просьба, поблагодарите релизера, оцените раздачу и оставьте свои комментарий, если Вы скачали Два Папы через торрент бесплатно! Внесите свою лепту в развитие PiratBit!
    Комментировать посты могут только пользователи прошедшие не сложную регистрацию
    Показать сообщения:    

    Два Папы через торрент
    Скачать бесплатно Два Папы
    Два Папы скачать торрент
    Два Папы смотреть онлайн
    Cкачать фильм Два Папы бесплатно
    Два Папы скачать торрент в хорошем качестве
    Два Папы смотреть онлайн бесплатно в хорошем качестве


    Вы не можете начинать темы
    Вы не можете отвечать на сообщения
    Вы не можете редактировать свои сообщения
    Вы не можете удалять свои сообщения
    Вы не можете голосовать в опросах
    Вы не можете прикреплять файлы к сообщениям
    Вы можете скачивать файлы