Ссылка на приватное зеркало нашего сайта всего за 1$. Внимание количество ограничено!!!

2 сезон

iTunes

1 сезон

1

2 сезон

2 сезон

iTunes

1 сезон

RePack

30

Ultimate

ВАЖНО

ИГРА 18+

pack

RePack

MK11
pack

Забери бонус

RePack

jed

!!Акция!!

Alien_Rage

RePack

fifa19

RePack

Assassins Creed: Odyssey

RePack

NEED FOR SPEED™ PAYBACK

4 сезон

9 сезон

Бесстыжие 9 сезон

Все сериалы

все сериалы на PB.wtf

RePack

FAR CRY 5
  

Наследники 3 / Descendants 3 (Кенни Ортега) [2019, Мюзикл, приключения, семейный, WEB-DL 1080p] DUB [iTunes] pb.wtf

Наследники 3 через торрент pb.wtf

Размер: 7.93 GB | Добавлен: 11 мес. назад | Торрент скачан:76 раз
Скачать  

21-12-2019 07:24 Наследники 3 Скачать торрент  

Наследники 3 / Descendants 3
Год выпуска: 2019
Страна: США
Студия: Disney Channel
Жанр: Мюзикл, приключения, семейный
Продолжительность: 01:46:22
Перевод: Дублированный | iTunes
Субтитры: Русские (Full), английские

Режиссер: Кенни Ортега

rating

В ролях: Дав Кэмерон, Сара Джеффри, Киган Коннор Трэйси, Кэмерон Бойс, София Карсон, Дилан Плэйфейр, Шайенн Джексон, Бу Бу Стюарт, Джедидайя Гудакр, Чайна Энн Макклейн

Описание: Мэл, Иви, Карлосу и Джею предстоит вернуться на Остров Потерянных - в то самое место, где они сами когда-то жили и готовились пойти по родительскому пути злодеяний. Однако теперь они отправятся туда в роли спасителей, чтобы дать и другим детям шанс на лучшую жизнь. Стоит ли такое благородное намерение рискованной поездки на Остров? Смогут ли герои справиться с неведомой темной силой и закрыть брешь в защитном барьере, который поставит под угрозу мирную жизнь в Аурадоне?

Качество: WEB-DL 1080p
Формат: MKV

Видео: MPEG-4 AVC, 1920x1080, 10.0 Mbit/s, 23.976 fps
Аудио #01: 48 kHz, AC3, 5.1, 384 Kbps | iTunes | RUS |
Аудио #02: 48 kHz, E-AC3, 5.1, 640 Kbps | Оригинал | ENG |
скриншот  скриншот  скриншот  скриншот  скриншот  

General
Unique ID : 9350166957028971237156245950987236951 (0x708C6D2B70C4D9FEE0D7D811AA3F657)
Complete name : F:Video111Descendants.3.2019.AMZN.WEB-DL.1080p.seleZen.mkv
Format : Matroska
Format version : Version 4
File size : 7.93 GiB
Duration : 1 h 46 min
Overall bit rate : 10.7 Mb/s
Movie name : Descendants 3 2019 from селезень
Encoded date : UTC 2019-12-21 06:50:48
Writing application : mkvmerge v40.0.0 ('Old Town Road + Pony') 64-bit
Writing library : libebml v1.3.9 + libmatroska v1.5.2

Video
ID : 1
Format : AVC
Format/Info : Advanced Video Codec
Format profile : High@L4
Format settings : CABAC / 4 Ref Frames
Format settings, CABAC : Yes
Format settings, Reference : 4 frames
Codec ID : V_MPEG4/ISO/AVC
Duration : 1 h 46 min
Bit rate mode : Constant
Bit rate : 10 000 kb/s
Width : 1 920 pixels
Height : 1 080 pixels
Display aspect ratio : 16:9
Frame rate mode : Constant
Frame rate : 23.976 (24000/1001) FPS
Color space : YUV
Chroma subsampling : 4:2:0
Bit depth : 8 bits
Scan type : Progressive
Bits/(Pixel*Frame) : 0.201
Stream size : 7.17 GiB (90%)
Language : English
Default : Yes
Forced : No
Color range : Limited
Color primaries : BT.709
Transfer characteristics : BT.709
Matrix coefficients : BT.709

Audio #1
ID : 2
Format : AC-3
Format/Info : Audio Coding 3
Commercial name : Dolby Digital
Codec ID : A_AC3
Duration : 1 h 46 min
Bit rate mode : Constant
Bit rate : 384 kb/s
Channel(s) : 6 channels
Channel layout : L R C LFE Ls Rs
Sampling rate : 48.0 kHz
Frame rate : 31.250 FPS (1536 SPF)
Bit depth : 16 bits
Compression mode : Lossy
Stream size : 292 MiB (4%)
Title : iTunes
Language : Russian
Service kind : Complete Main
Default : Yes
Forced : Yes

Audio #2
ID : 3
Format : E-AC-3
Format/Info : Enhanced AC-3
Commercial name : Dolby Digital Plus
Codec ID : A_EAC3
Duration : 1 h 46 min
Bit rate mode : Constant
Bit rate : 640 kb/s
Channel(s) : 6 channels
Channel layout : L R C LFE Ls Rs
Sampling rate : 48.0 kHz
Frame rate : 31.250 FPS (1536 SPF)
Compression mode : Lossy
Stream size : 487 MiB (6%)
Title : Original
Language : English
Service kind : Complete Main
Default : No
Forced : No

Text #1
ID : 4
Format : UTF-8
Codec ID : S_TEXT/UTF8
Codec ID/Info : UTF-8 Plain Text
Duration : 1 h 45 min
Bit rate : 60 b/s
Count of elements : 1050
Stream size : 47.1 KiB (0%)
Title : Full
Language : Russian
Default : No
Forced : No

Text #2
ID : 5
Format : UTF-8
Codec ID : S_TEXT/UTF8
Codec ID/Info : UTF-8 Plain Text
Duration : 1 h 46 min
Bit rate : 60 b/s
Count of elements : 1581
Stream size : 47.4 KiB (0%)
Title : Full
Language : English
Default : No
Forced : No

Text #3
ID : 6
Format : UTF-8
Codec ID : S_TEXT/UTF8
Codec ID/Info : UTF-8 Plain Text
Duration : 1 h 46 min
Bit rate : 66 b/s
Count of elements : 1945
Stream size : 51.9 KiB (0%)
Title : SDH
Language : English
Default : No
Forced : No

pb.wtf



Скачать Наследники 3 через торрент https://d.radikal.ru/d35/1912/b4/b81931d5fc06.jpg Скачать фильм Наследники 3 через торрент бесплантно в хорошем качестве Описание: Мэл, Иви, Карлосу и Джею предстоит вернуться на Остров Потерянных - в то самое место, где они сами когда-то жили и готовились ... 10 10 5
Торрент: Зарегистрирован [2019-12-21 07:37] · скачан: 76 раз
Статус: √ проверено
Размер: 7.93 GB
Как cкачать? Как скачать Наследники 3 через торрент | qTorrent

% Раздел Тема Автор DL S | L
Фильмы 2019-2020 [DVDrip, WEB-DLRip, HDrip] (DUB, MVO) [ 1.46 GB ] Наследники 3 / Descendants 3 [2019 Мюзикл WEB-DLRip] bober100 Скачать
1 | 0

28-11-2019 20:33  

Отключить всю рекламу на сайте

23-12-2019 06:06 Наследники 3 Скачать торрент  

По скринам выглядит как порнопародия.pb.wtf



    Дорогой пользователь! Огромная просьба, поблагодарите релизера, оцените раздачу и оставьте свои комментарий, если Вы скачали Наследники 3 через торрент бесплатно! Внесите свою лепту в развитие PiratBit!
    Комментировать посты могут только пользователи прошедшие не сложную регистрацию
    Показать сообщения:    

    Наследники 3 через торрент
    Скачать бесплатно Наследники 3
    Наследники 3 скачать торрент
    Наследники 3 смотреть онлайн
    Cкачать фильм Наследники 3 бесплатно
    Наследники 3 скачать торрент в хорошем качестве
    Наследники 3 смотреть онлайн бесплатно в хорошем качестве


    Вы не можете начинать темы
    Вы не можете отвечать на сообщения
    Вы не можете редактировать свои сообщения
    Вы не можете удалять свои сообщения
    Вы не можете голосовать в опросах
    Вы не можете прикреплять файлы к сообщениям
    Вы можете скачивать файлы