Ссылка на приватное зеркало всего за 1$. Внимание количество ограничено!!!

iTunes

iTunes

iTunes

1

iTunes

iTunes

iTunes

iTunes

iTunes

30
pack

Новость дня

ВАЖНО

!!Акция!!

Alien_RageХит недели

RePack

Resident Evil 21

ИГРА 18+

pack

RePack

jed

!!Акция!!

Alien_Rage

RePack

fifa19

RePack

Assassins Creed: Odyssey

RePack

NEED FOR SPEED™ PAYBACK

4 сезон

9 сезон

Бесстыжие 9 сезон

Все сериалы

все сериалы на PB.wtf

RePack

FAR CRY 5
  

Ведьмак / The Witcher / Сезон: 1 / Серии: 1-8 из 8 (Алик Сахаров, Шарлотта Брандстром, Алекс Гарсиа Лопес) [2019, фэнтези, боевик, драма, приключения, WEB-DLRip | КПК от R.G.Resident] Dub pb.wtf

Ведьмак через торрент pb.wtf

Раздают: 1 [ 0 KB/s ] Качают: 1 [ 0 KB/s ]
Размер: 2.15 GB | Добавлен: 3 мес. 12 д. назад | Торрент скачан:118 раз
Скачать  

21-12-2019 19:55 Ведьмак Скачать торрент  

Ведьмак / The Witcher Слоган: «The Worst Monsters Are the Ones We Create»

Год выпуска: 2019
Страна: Польша, США
Жанр: фэнтези, боевик, драма, приключения

Сезон: 1
Серий: 1 - 8 из 8

Продолжительность: ~ 01:00:00
Перевод: Профессиональный (полное дублирование) | Пифагор
Субтитры: Нет

Режиссёр: Алик Сахаров, Шарлотта Брандстром, Алекс Гарсиа Лопес
В ролях: Генри Кавилл, Фрейя Аллан, Анна Шаффер, Джои Бэти, МайАнна Бёринг, Том Кэнтон, Аня Чалотра, Имон Фэррен, Бьерн Хлинур Харальдссон, Адам Леви, Джоди Мэй, Ларс Миккельсен, Мацей Мусял, Мими Дивени, Ройс Пирресон, Уилсон Раджу-Пухальте, Амит Шах, Махеш Джаду, Анна-Луиза Плауман

Описание: Ведьмак Геральт, мутант и убийца чудовищ, изо всех сил старается найти свое место в мире, где люди часто оказываются намного хуже монстров



Релиз от:
Рип от: Страна

Качество: WEB-DLRip | КПК
Формат: MP4
Видео кодек: AVC
Аудио кодек: AAC
Видео: 480x240, 24 fps, 512 kbps
Аудио: 2 ch, 48,0 kHz, 128 Kbps
Общее
Полное имя : E:\Кино\Ведьмак\The.Witcher.S01.01.mp4
Формат : MPEG-4
Профиль формата : Base Media
Идентификатор кодека : isom
Размер файла : 281 Мбайт
Продолжительность : 1 ч. 1 м.
Режим общего битрейта : Переменный
Общий поток : 644 Кбит/сек
Дата кодирования : UTC 2019-12-21 16:57:33
Дата пометки : UTC 2019-12-21 16:57:33

Видео
Идентификатор : 1
Формат : AVC
Формат/Информация : Advanced Video Codec
Профиль формата : High@L2.1
Параметр CABAC формата : Да
Параметр ReFrames формата : 8 кадров
Идентификатор кодека : avc1
Идентификатор кодека/Информация : Advanced Video Coding
Продолжительность : 1 ч. 1 м.
Битрейт : 512 Кбит/сек
Максимальный битрейт : 2831 Кбит/сек
Ширина : 480 пикселей
Высота : 240 пикселей
Соотношение сторон : 2,000
Режим частоты кадров : Постоянный
Частота кадров : 24,000 кадра/сек
Цветовое пространство : YUV
Субдискретизация насыщенности : 4:2:0
Битовая глубина : 8 бит
Тип развёртки : Прогрессивная
Бит/(Пиксели*Кадры) : 0.185
Размер потока : 224 Мбайт (80%)
Библиотека кодирования : x264 core 125 r2200 999b753
Настройки программы : cabac=1 / ref=8 / deblock=1:-1:-1 / analyse=0x3:0x133 / me=umh / subme=8 / psy=1 / psy_rd=1.00:0.10 / mixed_ref=1 / me_range=24 / chroma_me=1 / trellis=2 / 8x8dct=1 / cqm=0 / deadzone=21,11 / fast_pskip=0 / chroma_qp_offset=-3 / threads=6 / lookahead_threads=1 / sliced_threads=0 / nr=0 / decimate=1 / interlaced=0 / bluray_compat=0 / constrained_intra=0 / bframes=8 / b_pyramid=2 / b_adapt=2 / b_bias=0 / direct=3 / weightb=1 / open_gop=0 / weightp=2 / keyint=250 / keyint_min=23 / scenecut=40 / intra_refresh=0 / rc_lookahead=50 / rc=2pass / mbtree=1 / bitrate=512 / ratetol=1.0 / qcomp=0.60 / qpmin=0 / qpmax=69 / qpstep=4 / cplxblur=20.0 / qblur=0.5 / ip_ratio=1.40 / aq=1:1.00
Дата кодирования : UTC 2019-12-21 16:57:33
Дата пометки : UTC 2019-12-21 16:57:41

Аудио
Идентификатор : 2
Формат : AAC
Формат/Информация : Advanced Audio Codec
Профиль формата : LC
Идентификатор кодека : 40
Продолжительность : 1 ч. 1 м.
Вид битрейта : Переменный
Битрейт : 128 Кбит/сек
Максимальный битрейт : 133 Кбит/сек
Каналы : 2 канала
Расположение каналов : Front: L R
Частота : 48,0 КГц
Метод сжатия : С потерями
Размер потока : 55,9 Мбайт (20%)
Дата кодирования : UTC 2019-12-21 16:57:40
Дата пометки : UTC 2019-12-21 16:57:41
pb.wtf



Скачать Ведьмак через торрент https://i111.fastpic.ru/big/2019/1221/96/3f59fe5c64f5193383214e55d4cb1996.jpg Скачать фильм Ведьмак через торрент бесплантно в хорошем качестве Описание: Ведьмак Геральт, мутант и убийца чудовищ, изо всех сил старается найти свое место в мире, где люди часто оказываются намного хуже ... 10 10 5
Торрент: Зарегистрирован [2019-12-21 19:55] · скачан: 118 раз
Статус: √ проверено
Размер: 2.15 GB
Как cкачать? Как скачать Ведьмак через торрент | qTorrent

% Раздел Тема Автор DL S | L
Зарубежные сериалы [ 139.26 GB ] Ведьмак / The Witcher / Сезон: 1 / Серии: 1-8 из 8 [2019 UHD WEB-DL 2160p] [SDR] DUB [Пифагор / Netflix] bober100 Скачать
6 | 2
Зарубежные сериалы [ 10.48 GB ] Ведьмак / The Witcher / Сезон: 1 / Серии: 1-8 из 8 [2019 WEB-DLRip] [DVO] killermax2013 Скачать
4 | 1
Зарубежные сериалы [ 24.45 GB ] Ведьмак / The Witcher / Сезон: 1 / Серии: 1-8 из 8 [2019 WEB-DL 1080p] DUB [Пифагор / Netflix] bober100 Скачать
69 | 5
Зарубежные сериалы [ 8.6 GB ] Ведьмак / The Witcher / Сезон: 1 / Серии: 1-8 из 8 [2019 WEB-DLRip] DUB [Пифагор / Netflix] bober100 Скачать
41 | 3
Зарубежные сериалы [ 65.6 GB ] Ведьмак / The Witcher / Сезон: 1 / Серии: 1-8 из 8 [2019 UHD WEB-DLRip 2160p] DUB [Пифагор / Netflix] bober100 Скачать
8 | 1
Зарубежные сериалы [ 22.73 GB ] Ведьмак / The Witcher / Сезон: 1 / Серии: 1-8 из 8 [2019 WEBRip 720p] [DVO] killermax2013 Скачать
3 | 0
Зарубежные сериалы [ 22.09 GB ] Ведьмак / The Witcher / Сезон: 1 / Серии: 1-8 из 8 [2019 WEB-DL-HEVC 1080p] DUB [Пифагор / Netflix] bober100 Скачать
9 | 2

28-11-2019 20:33  

Отключить всю рекламу на сайте

22-12-2019 19:10 Ведьмак Скачать торрент  

Хороший сериал.Конечно не Игры Престолов но снято не плохо хоть и несколько запутанный сюжет.pb.wtf



14-02-2020 11:53 Ведьмак Скачать торрент  

если книгу не читал - сюжет действительно кажется запутанным.
эпизоды происходят в разное время. сериал неплох можно смотреть.
лично меня достала навязчивая музыка и звуковые эффекты. звукорежиссера на мыло. и до тошноты все залито американским пафосом.
енифер и трис страшилы. дохрена негров.pb.wtf



    Дорогой пользователь! Огромная просьба, поблагодарите релизера, оцените раздачу и оставьте свои комментарий, если Вы скачали Ведьмак через торрент бесплатно! Внесите свою лепту в развитие PiratBit!
    Комментировать посты могут только пользователи прошедшие не сложную регистрацию
    Показать сообщения:    

    Ведьмак через торрент
    Скачать бесплатно Ведьмак
    Ведьмак скачать торрент
    Ведьмак смотреть онлайн
    Cкачать фильм Ведьмак бесплатно
    Ведьмак скачать торрент в хорошем качестве
    Ведьмак смотреть онлайн бесплатно в хорошем качестве


    Вы не можете начинать темы
    Вы не можете отвечать на сообщения
    Вы не можете редактировать свои сообщения
    Вы не можете удалять свои сообщения
    Вы не можете голосовать в опросах
    Вы не можете прикреплять файлы к сообщениям
    Вы можете скачивать файлы