Ссылка на приватное зеркало нашего сайта всего за 1$. Внимание количество ограничено!!!

2 сезон

iTunes

1 сезон

1

iTunes

iTunes

iTunes

1 сезон

RePack

30

ИГРА 18+

pack

ВАЖНО

!!Акция!!

Alien_RageХит недели

RePack

MK11
pack

Забери бонус

RePack

jed

!!Акция!!

Alien_Rage

RePack

fifa19

RePack

Assassins Creed: Odyssey

RePack

NEED FOR SPEED™ PAYBACK

4 сезон

9 сезон

Бесстыжие 9 сезон

Все сериалы

все сериалы на PB.wtf

RePack

FAR CRY 5
  

Комната старинных ключей / Серии: 1-4 из 4 (Антон Павлючик) [2019, Детектив, WEB-DLRip] pb.wtf

Комната старинных ключей через торрент pb.wtf

Размер: 2.36 GB | Добавлен: 10 мес. назад | Торрент скачан:27 раз
Скачать  

22-12-2019 12:03 Комната старинных ключей Скачать торрент  

Комната старинных ключей
Год выпуска: 2019
Страна: Россия
Жанр: Детектив
Продолжительность: ~ 00:48:00
Субтитры: отсутствуют

Режиссер: Антон Павлючик



В ролях: Евгений Пронин, Алексей Вакулов, Светлана Смирнова-Кацагаджиева, Владимир Колганов, Анна Христич, Филипп Азаров, Аркадий Шароградский, Андрей Родимов, Елена Купрашевич, Варвара Гусинская, Светлана Селезнёва, Руслан Бальбуциев

Описание: В подмосковном поселке, в роскошном особняке, живет известный в узких кругах психолог Анжей Ковальский. У него необычный метод: он собирает по всему миру старинные ключи, а потом, выслушав конкретного пациента, подбирает для него ключ из своей коллекции, после чего вдохновленный обладатель ключа сам находит выход из трудного положения.

Качество: WEB-DLRip
Формат: AVI

Видео: 720x400 (1.80:1), 25 fps, XviD build 73 ~1600 kbps avg, 0.222 bit/pixel
Аудио: 48.0 kHz, AC3 Dolby Digital, 2/0 (L,R) ch, ~ 192 kbps
скриншот  скриншот  скриншот  скриншот  скриншот  

General
Complete name : D:\Комната старинных ключей.2019.WEB-DLRip. Files-x\01. Комната старинных ключей.2019.WEB-DLRip. Files-x.avi
Format : AVI
Format/Info : Audio Video Interleave
File size : 621 MiB
Duration : 48 min 9 s
Overall bit rate : 1 802 kb/s
Writing application : VirtualDubMod 1.5.10.3 | www.virtualdub-fr.org || (build 2550/release)
Writing library : VirtualDubMod build 2550/release

Video
ID : 0
Format : MPEG-4 Visual
Format profile : Advanced Simple@L5
Format settings : BVOP1 / Custom Matrix
Format settings, BVOP : 1
Format settings, QPel : No
Format settings, GMC : No warppoints
Format settings, Matrix : Custom
Codec ID : XVID
Codec ID/Hint : XviD
Duration : 48 min 9 s
Bit rate : 1 600 kb/s
Width : 720 pixels
Height : 400 pixels
Display aspect ratio : 16:9
Frame rate : 25.000 FPS
Color space : YUV
Chroma subsampling : 4:2:0
Bit depth : 8 bits
Scan type : Progressive
Compression mode : Lossy
Bits/(Pixel*Frame) : 0.222
Stream size : 551 MiB (89%)
Writing library : XviD 73

Audio
ID : 1
Format : AC-3
Format/Info : Audio Coding 3
Codec ID : 2000
Duration : 48 min 9 s
Bit rate mode : Constant
Bit rate : 192 kb/s
Channel(s) : 2 channels
Channel positions : Front: L R
Sampling rate : 48.0 kHz
Frame rate : 31.250 FPS (1536 SPF)
Bit depth : 16 bits
Compression mode : Lossy
Stream size : 66.1 MiB (11%)
Alignment : Split accross interleaves
Interleave, duration : 40 ms (1.00 video frame)
Interleave, preload duratio : 500 ms
Service kind : Complete Main

pb.wtf



Скачать Комната старинных ключей через торрент https://i111.fastpic.ru/big/2019/1220/f0/6b9613e9777807c7963681ec0b69def0.jpg Скачать фильм Комната старинных ключей через торрент бесплантно в хорошем качестве Описание: В подмосковном поселке, в роскошном особняке, живет известный в узких кругах психолог Анжей Ковальский. У него необычный метод: ... 10 10 2
Торрент: Зарегистрирован [2019-12-22 12:03] · скачан: 27 раз
Статус: √ проверено
Размер: 2.36 GB
Как cкачать? Как скачать Комната старинных ключей через торрент | qTorrent

% Раздел Тема Автор DL S | L
Наши сериалы [ 6.95 GB ] Комната старинных ключей / Серии: 1-4 из 4 [2019 WEB-DL 1080p] bober100 Скачать
1 | 0
Наши сериалы [ 3.61 GB ] Комната старинных ключей / Серии: 1-4 из 4 [2019 WEB-DL 720p] bober100 Скачать
1 | 0
Наши сериалы [ 2.34 GB ] Комната старинных ключей / Серии: 1-4 из 4 [2019 WEB-DLRip-AVC] bober100 Скачать
1 | 0
Наши сериалы [ 2.15 GB ] Комната старинных ключей / Серии: 1-4 из 4 [2019 экранизация SATRip-AVC] aleksan55 Скачать
1 | 0

28-11-2019 20:33  

Отключить всю рекламу на сайте

    Дорогой пользователь! Огромная просьба, поблагодарите релизера, оцените раздачу и оставьте свои комментарий, если Вы скачали Комната старинных ключей через торрент бесплатно! Внесите свою лепту в развитие PiratBit!
    Комментировать посты могут только пользователи прошедшие не сложную регистрацию
    Показать сообщения:    

    Комната старинных ключей через торрент
    Скачать бесплатно Комната старинных ключей
    Комната старинных ключей скачать торрент
    Комната старинных ключей смотреть онлайн
    Cкачать фильм Комната старинных ключей бесплатно
    Комната старинных ключей скачать торрент в хорошем качестве
    Комната старинных ключей смотреть онлайн бесплатно в хорошем качестве


    Вы не можете начинать темы
    Вы не можете отвечать на сообщения
    Вы не можете редактировать свои сообщения
    Вы не можете удалять свои сообщения
    Вы не можете голосовать в опросах
    Вы не можете прикреплять файлы к сообщениям
    Вы можете скачивать файлы