2 сезон

iTunes

1 сезон

1

iTunes

iTunes

iTunes

1 сезон

RePack

30

ИГРА 18+

pack

ВАЖНО

!!Акция!!

Alien_RageХит недели

RePack

MK11
pack

Забери бонус

RePack

jed

!!Акция!!

Alien_Rage

RePack

fifa19

RePack

Assassins Creed: Odyssey

RePack

NEED FOR SPEED™ PAYBACK

4 сезон

9 сезон

Бесстыжие 9 сезон

Все сериалы

все сериалы на PB.wtf

RePack

FAR CRY 5
  

Комната старинных ключей / Серии: 1-4 из 4 (Антон Павлючик) [2019, Детектив, WEB-DL 720p] pb.wtf

Комната старинных ключей через торрент pb.wtf

Размер: 3.61 GB | Добавлен: 10 мес. назад | Торрент скачан:41 раз
Скачать  

22-12-2019 12:04 Комната старинных ключей Скачать торрент  

Комната старинных ключей
Год выпуска: 2019
Страна: Россия
Жанр: Детектив
Продолжительность: ~ 00:48:00
Субтитры: отсутствуют

Режиссер: Антон Павлючик



В ролях: Евгений Пронин, Алексей Вакулов, Светлана Смирнова-Кацагаджиева, Владимир Колганов, Анна Христич, Филипп Азаров, Аркадий Шароградский, Андрей Родимов, Елена Купрашевич, Варвара Гусинская, Светлана Селезнёва, Руслан Бальбуциев

Описание: В подмосковном поселке, в роскошном особняке, живет известный в узких кругах психолог Анжей Ковальский. У него необычный метод: он собирает по всему миру старинные ключи, а потом, выслушав конкретного пациента, подбирает для него ключ из своей коллекции, после чего вдохновленный обладатель ключа сам находит выход из трудного положения.

Качество: WEB-DL 720p
Формат: MKV

Видео: 1024x576, (16:9), 25 fps, AVC MPEG-4 (x264), High@L4 ~ 2500 kbps , 0.109 bit/pixel
Аудио: 48.0 kHz, AC3 Dolby Digital, 2/0 (L,R) ch, ~ 192 kbps
скриншот  скриншот  скриншот  скриншот  

Общее
Уникальный идентификатор : 244168713869357105144852558672764673976 (0xB7B12F0A64E3C11F8EBD022C4D311FB8)
Полное имя : C:\Komnata.starinnyh.kliuchey.2019.WEB-DL.(720p).ExKinoRay\Komnata.starinnyh.kliuchey.e01.2019.WEB-DL.(720p).ExKinoRay.mkv
Формат : Matroska
Версия формата : Version 2
Размер файла : 949 Мбайт
Продолжительность : 48 м. 13 с.
Общий поток : 2750 Кбит/сек
Дата кодирования : UTC 2019-12-22 00:39:05
Программа кодирования : mkvmerge v5.8.0 ('No Sleep / Pillow') built on Sep 2 2012 15:37:04
Библиотека кодирования : libebml v1.2.3 + libmatroska v1.3.0

Видео
Идентификатор : 1
Формат : AVC
Формат/Информация : Advanced Video Codec
Профиль формата : High@L4
Настройки формата : CABAC / 4 Ref Frames
Параметр CABAC формата : Да
Параметр RefFrames формата : 4 кадра
Идентификатор кодека : V_MPEG4/ISO/AVC
Продолжительность : 48 м. 13 с.
Битрейт : 2500 Кбит/сек
Ширина : 1280 пикселей
Высота : 720 пикселей
Соотношение сторон : 16:9
Режим частоты кадров : Постоянный
Частота кадров : 25,000 кадров/сек
Цветовое пространство : YUV
Субдискретизация насыщенности : 4:2:0
Битовая глубина : 8 бит
Тип развёртки : Прогрессивная
Бит/(Пиксели*Кадры) : 0.109
Размер потока : 863 Мбайт (91%)
Язык : Russian
Default : Да
Forced : Нет

Аудио
Идентификатор : 2
Формат : AC-3
Формат/Информация : Audio Coding 3
Коммерческое название : Dolby Digital
Идентификатор кодека : A_AC3
Продолжительность : 48 м. 13 с.
Вид битрейта : Постоянный
Битрейт : 192 Кбит/сек
Каналы : 2 канала
ChannelLayout : L R
Частота : 48,0 КГц
Частота кадров : 31,250 кадров/сек (1536 SPF)
Метод сжатия : С потерями
Размер потока : 66,2 Мбайт (7%)
Язык : Russian
ServiceKind/String : Complete Main
Default : Да
Forced : Нет

pb.wtf



Скачать Комната старинных ключей через торрент https://i111.fastpic.ru/big/2019/1220/f0/6b9613e9777807c7963681ec0b69def0.jpg Скачать фильм Комната старинных ключей через торрент бесплантно в хорошем качестве Описание: В подмосковном поселке, в роскошном особняке, живет известный в узких кругах психолог Анжей Ковальский. У него необычный метод: ... 10 10 3
Торрент: Зарегистрирован [2019-12-22 12:04] · скачан: 41 раз
Статус: √ проверено
Размер: 3.61 GB
Как cкачать? Как скачать Комната старинных ключей через торрент | qTorrent

% Раздел Тема Автор DL S | L
Наши сериалы [ 6.95 GB ] Комната старинных ключей / Серии: 1-4 из 4 [2019 WEB-DL 1080p] bober100 Скачать
1 | 0
Наши сериалы [ 2.34 GB ] Комната старинных ключей / Серии: 1-4 из 4 [2019 WEB-DLRip-AVC] bober100 Скачать
1 | 0
Наши сериалы [ 2.36 GB ] Комната старинных ключей / Серии: 1-4 из 4 [2019 WEB-DLRip] bober100 Скачать
1 | 0
Наши сериалы [ 2.15 GB ] Комната старинных ключей / Серии: 1-4 из 4 [2019 экранизация SATRip-AVC] aleksan55 Скачать
1 | 0

28-11-2019 20:33  

Отключить всю рекламу на сайте

    Дорогой пользователь! Огромная просьба, поблагодарите релизера, оцените раздачу и оставьте свои комментарий, если Вы скачали Комната старинных ключей через торрент бесплатно! Внесите свою лепту в развитие PiratBit!
    Комментировать посты могут только пользователи прошедшие не сложную регистрацию
    Показать сообщения:    

    Комната старинных ключей через торрент
    Скачать бесплатно Комната старинных ключей
    Комната старинных ключей скачать торрент
    Комната старинных ключей смотреть онлайн
    Cкачать фильм Комната старинных ключей бесплатно
    Комната старинных ключей скачать торрент в хорошем качестве
    Комната старинных ключей смотреть онлайн бесплатно в хорошем качестве


    Вы не можете начинать темы
    Вы не можете отвечать на сообщения
    Вы не можете редактировать свои сообщения
    Вы не можете удалять свои сообщения
    Вы не можете голосовать в опросах
    Вы не можете прикреплять файлы к сообщениям
    Вы можете скачивать файлы