2 сезон

iTunes

1 сезон

1

iTunes

iTunes

iTunes

1 сезон

RePack

30

ИГРА 18+

pack

ВАЖНО

!!Акция!!

Alien_RageХит недели

RePack

MK11
pack

Забери бонус

RePack

jed

!!Акция!!

Alien_Rage

RePack

fifa19

RePack

Assassins Creed: Odyssey

RePack

NEED FOR SPEED™ PAYBACK

4 сезон

9 сезон

Бесстыжие 9 сезон

Все сериалы

все сериалы на PB.wtf

RePack

FAR CRY 5
  

Комната старинных ключей / Серии: 1-4 из 4 (Антон Павлючик) [2019, Детектив, WEB-DL 1080p] pb.wtf

Комната старинных ключей через торрент pb.wtf

Размер: 6.95 GB | Добавлен: 10 мес. назад | Торрент скачан:24 раза
Скачать  

22-12-2019 12:04 Комната старинных ключей Скачать торрент  

Комната старинных ключей
Год выпуска: 2019
Страна: Россия
Жанр: Детектив
Продолжительность: ~ 00:48:00
Субтитры: отсутствуют

Режиссер: Антон Павлючик



В ролях: Евгений Пронин, Алексей Вакулов, Светлана Смирнова-Кацагаджиева, Владимир Колганов, Анна Христич, Филипп Азаров, Аркадий Шароградский, Андрей Родимов, Елена Купрашевич, Варвара Гусинская, Светлана Селезнёва, Руслан Бальбуциев

Описание: В подмосковном поселке, в роскошном особняке, живет известный в узких кругах психолог Анжей Ковальский. У него необычный метод: он собирает по всему миру старинные ключи, а потом, выслушав конкретного пациента, подбирает для него ключ из своей коллекции, после чего вдохновленный обладатель ключа сам находит выход из трудного положения.

Качество: WEB-DL 1080p
Формат: MKV

Видео: MPEG4 AVC Video, H264, 16:9, 1920x1080, 25 fps, ~5000 kbps, 0.097 bit/pixel
Аудио: AC3 Dolby Digital, 48.0 kHz, 2/0 (L,R) ch, 192 kbps
скриншот  скриншот  скриншот  скриншот  скриншот  

General
Unique ID : 201256105947564149951044643649960300174 (0x9768841EB46F2658BE5DD43054F84E8E)
Complete name : D:\Komnata.starinnyh.kliuchey.2019.WEB-DL.(1080p).ExKinoRay\Komnata.starinnyh.kliuchey.e01.2019.WEB-DL.(1080p).ExKinoRay.mkv
Format : Matroska
Format version : Version 2
File size : 1.79 GiB
Duration : 48 min 13 s
Overall bit rate : 5 303 kb/s
Encoded date : UTC 2019-12-22 00:39:40
Writing application : mkvmerge v5.8.0 ('No Sleep / Pillow') built on Sep 2 2012 15:37:04
Writing library : libebml v1.2.3 + libmatroska v1.3.0

Video
ID : 1
Format : AVC
Format/Info : Advanced Video Codec
Format profile : High@L4
Format settings : CABAC / 4 Ref Frames
Format settings, CABAC : Yes
Format settings, ReFrames : 4 frames
Codec ID : V_MPEG4/ISO/AVC
Duration : 48 min 13 s
Bit rate : 5 006 kb/s
Width : 1 920 pixels
Height : 1 080 pixels
Display aspect ratio : 16:9
Frame rate mode : Constant
Frame rate : 25.000 FPS
Color space : YUV
Chroma subsampling : 4:2:0
Bit depth : 8 bits
Scan type : Progressive
Bits/(Pixel*Frame) : 0.097
Stream size : 1.69 GiB (94%)
Language : Russian
Default : Yes
Forced : No

Audio
ID : 2
Format : AC-3
Format/Info : Audio Coding 3
Codec ID : A_AC3
Duration : 48 min 13 s
Bit rate mode : Constant
Bit rate : 192 kb/s
Channel(s) : 2 channels
Channel positions : Front: L R
Sampling rate : 48.0 kHz
Frame rate : 31.250 FPS (1536 SPF)
Bit depth : 16 bits
Compression mode : Lossy
Stream size : 66.2 MiB (4%)
Language : Russian
Service kind : Complete Main
Default : Yes
Forced : No

pb.wtf



Скачать Комната старинных ключей через торрент https://i111.fastpic.ru/big/2019/1220/f0/6b9613e9777807c7963681ec0b69def0.jpg Скачать фильм Комната старинных ключей через торрент бесплантно в хорошем качестве Описание: В подмосковном поселке, в роскошном особняке, живет известный в узких кругах психолог Анжей Ковальский. У него необычный метод: ... 9.3 10 4
Торрент: Зарегистрирован [2019-12-22 12:04] · скачан: 24 раз
Статус: √ проверено
Размер: 6.95 GB
Как cкачать? Как скачать Комната старинных ключей через торрент | qTorrent

% Раздел Тема Автор DL S | L
Наши сериалы [ 3.61 GB ] Комната старинных ключей / Серии: 1-4 из 4 [2019 WEB-DL 720p] bober100 Скачать
1 | 0
Наши сериалы [ 2.34 GB ] Комната старинных ключей / Серии: 1-4 из 4 [2019 WEB-DLRip-AVC] bober100 Скачать
1 | 0
Наши сериалы [ 2.36 GB ] Комната старинных ключей / Серии: 1-4 из 4 [2019 WEB-DLRip] bober100 Скачать
1 | 0
Наши сериалы [ 2.15 GB ] Комната старинных ключей / Серии: 1-4 из 4 [2019 экранизация SATRip-AVC] aleksan55 Скачать
1 | 0

28-11-2019 20:33  

Отключить всю рекламу на сайте

    Дорогой пользователь! Огромная просьба, поблагодарите релизера, оцените раздачу и оставьте свои комментарий, если Вы скачали Комната старинных ключей через торрент бесплатно! Внесите свою лепту в развитие PiratBit!
    Комментировать посты могут только пользователи прошедшие не сложную регистрацию
    Показать сообщения:    

    Комната старинных ключей через торрент
    Скачать бесплатно Комната старинных ключей
    Комната старинных ключей скачать торрент
    Комната старинных ключей смотреть онлайн
    Cкачать фильм Комната старинных ключей бесплатно
    Комната старинных ключей скачать торрент в хорошем качестве
    Комната старинных ключей смотреть онлайн бесплатно в хорошем качестве


    Вы не можете начинать темы
    Вы не можете отвечать на сообщения
    Вы не можете редактировать свои сообщения
    Вы не можете удалять свои сообщения
    Вы не можете голосовать в опросах
    Вы не можете прикреплять файлы к сообщениям
    Вы можете скачивать файлы