Ссылка на приватное зеркало всего за 1$. Внимание количество ограничено!!!

OK

1+1

iTunes

мы

OK

1

WEB-DLRip

Джокер

Пифагор

Ведьмак / The Witcher сериал

iTunes

ПШазам

ОК

Оно 2

iTunes

30
pack

Вам бонус

ВАЖНО

!!Акция!!

Alien_RageХит недели

RePack

Resident Evil 21

ИГРА 18+

pack

RePack

jed

RePack

fifa19

RePack

Assassins Creed: Odyssey

RePack

NEED FOR SPEED™ PAYBACK

4 сезон

9 сезон

Бесстыжие 9 сезон

Все сериалы

все сериалы на PB.wtf

RePack

FAR CRY 5
  

Женщина в огне / American Woman (Джейк Скотт) [2018, Драма, BDRip 720p] MVO [Онлайн кинотеатр] pb.wtf

Женщина в огне через торрент pb.wtf

Раздают: 4 [ 0 KB/s ]
Размер: 5.55 GB | Добавлен: 7 д. назад | Торрент скачан:22 раза
Скачать  

22-12-2019 15:02 Женщина в огне Скачать торрент  

Женщина в огне | American Woman
Год выпуска: 2018
Страна: Великобритания, США
Жанр: Драма
Продолжительность: 01:51:54
Перевод: Профессиональный (многоголосый закадровый) | Онлайн кинотеатр
Субтитры: русские (форс., полные), английские (полные)

Режиссер: Джейк Скотт

rating


В ролях: Кристина Хендрикс, Сиенна Миллер, Аарон Пол, Эми Мэдиган, Уилл Сассо, Скай Феррейра, Мэйкон Блэр, Алекс Нюстадтер, Мэгги Кастл, Пэт Хили

Описание: В маленьком городке в штате Пенсильвания у 32-летней женщины пропадает дочь, оставив маме новорожденного внука. Фильм описывает события, происходящие на протяжении 11 лет, в течение которых женщина пыталась выяснить, куда же пропала ее дочь.

Качество: BDRip 720p
Формат: MKV

Видео: MPEG-4 AVC, 1280x534, 6460 kbps, 23,976 fps
Аудио#1: русский, AC3, 2.0 ch, 48 kHz, 192 kbps

Аудио#1: английский, AC3, 5.1 ch, 48 kHz, 448 kbps
скриншот  скриншот  скриншот  скриншот  скриншот  

Общее
Уникальный идентификатор : 236726779754735755625824741066390762801 (0xB217EB5C472BFE29BD92775DE1E9F531)
Полное имя : G:Torrent2ZhenshchinaVogneBDRip720p.mkv
Формат : Matroska
Версия формата : Version 4 / Version 2
Размер файла : 5,55 Гбайт
Продолжительность : 1 ч. 51 м.
Общий поток : 7100 Кбит/сек
Дата кодирования : UTC 2020-01-19 15:13:14
Программа кодирования : mkvmerge v9.5.0 ('Quiet Fire') 64bit
Библиотека кодирования : libebml v1.3.4 + libmatroska v1.4.5

Видео
Идентификатор : 1
Формат : AVC
Формат/Информация : Advanced Video Codec
Профиль формата : High@L4.1
Настройки формата : CABAC / 12 Ref Frames
Параметр CABAC формата : Да
Параметр RefFrames формата : 12 кадров
Идентификатор кодека : V_MPEG4/ISO/AVC
Продолжительность : 1 ч. 51 м.
Битрейт : 6460 Кбит/сек
Ширина : 1280 пикселей
Высота : 534 пикселя
Соотношение сторон : 2,40:1
Режим частоты кадров : Постоянный
Частота кадров : 23,976 (23976/1000) кадра/сек
Цветовое пространство : YUV
Субдискретизация насыщенности : 4:2:0
Битовая глубина : 8 бит
Тип развёртки : Прогрессивная
Бит/(Пиксели*Кадры) : 0.394
Размер потока : 5,05 Гбайт (91%)
Заголовок : Sisendrovich(R)
Библиотека кодирования : x264 core 159 r2991 1771b55
Настройки программы : cabac=1 / ref=12 / deblock=1:-1:-1 / analyse=0x3:0x133 / me=tesa / subme=11 / psy=1 / psy_rd=1.00:0.00 / mixed_ref=1 / me_range=32 / chroma_me=1 / trellis=2 / 8x8dct=1 / cqm=0 / deadzone=21,11 / fast_pskip=0 / chroma_qp_offset=-2 / threads=17 / lookahead_threads=4 / sliced_threads=0 / nr=0 / decimate=0 / interlaced=0 / bluray_compat=0 / constrained_intra=0 / bframes=10 / b_pyramid=2 / b_adapt=2 / b_bias=0 / direct=3 / weightb=1 / open_gop=0 / weightp=2 / keyint=240 / keyint_min=23 / scenecut=40 / intra_refresh=0 / rc_lookahead=60 / rc=2pass / mbtree=0 / bitrate=6460 / ratetol=1.0 / qcomp=0.70 / qpmin=0 / qpmax=69 / qpstep=4 / cplxblur=20.0 / qblur=0.5 / vbv_maxrate=50000 / vbv_bufsize=62500 / nal_hrd=none / filler=0 / ip_ratio=1.40 / pb_ratio=1.30 / aq=3:0.80
Язык : English
Default : Да
Forced : Нет

Аудио #1
Идентификатор : 2
Формат : AC-3
Формат/Информация : Audio Coding 3
Параметр Endianness формата : Big
Идентификатор кодека : A_AC3
Продолжительность : 1 ч. 51 м.
Вид битрейта : Постоянный
Битрейт : 192 Кбит/сек
Каналы : 2 канала
Расположение каналов : Front: L R
Частота : 48,0 КГц
Частота кадров : 31,250 кадров/сек (1536 SPF)
Битовая глубина : 16 бит
Метод сжатия : С потерями
Размер потока : 154 Мбайт (3%)
Заголовок : rus
Язык : Russian
Default : Да
Forced : Нет

Аудио #2
Идентификатор : 3
Формат : AC-3
Формат/Информация : Audio Coding 3
Параметр Endianness формата : Big
Идентификатор кодека : A_AC3
Продолжительность : 1 ч. 51 м.
Вид битрейта : Постоянный
Битрейт : 448 Кбит/сек
Каналы : 6 каналов
Расположение каналов : Front: L C R, Side: L R, LFE
Частота : 48,0 КГц
Частота кадров : 31,250 кадров/сек (1536 SPF)
Битовая глубина : 16 бит
Метод сжатия : С потерями
Размер потока : 359 Мбайт (6%)
Заголовок : eng
Язык : English
Default : Нет
Forced : Нет

Текст #1
Идентификатор : 4
Формат : UTF-8
Идентификатор кодека : S_TEXT/UTF8
Идентификатор кодека/Информация : UTF-8 Plain Text
Продолжительность : 1 ч. 43 м.
Битрейт : 0 бит/сек
ElementCount : 12
Размер потока : 742 байт (0%)
Заголовок : rusForced
Язык : Russian
Default : Да
Forced : Нет

Текст #2
Идентификатор : 5
Формат : UTF-8
Идентификатор кодека : S_TEXT/UTF8
Идентификатор кодека/Информация : UTF-8 Plain Text
Продолжительность : 1 ч. 50 м.
Битрейт : 81 бит/сек
ElementCount : 1149
Размер потока : 66,1 Кбайт (0%)
Заголовок : rusFull
Язык : Russian
Default : Нет
Forced : Нет

Текст #3
Идентификатор : 6
Формат : UTF-8
Идентификатор кодека : S_TEXT/UTF8
Идентификатор кодека/Информация : UTF-8 Plain Text
Продолжительность : 1 ч. 45 м.
Битрейт : 59 бит/сек
ElementCount : 1571
Размер потока : 46,0 Кбайт (0%)
Заголовок : engFull
Язык : English
Default : Нет
Forced : Нет

Меню
00:00:00.000 : :Chapter 01
00:19:24.663 : :Chapter 02
00:42:27.503 : :Chapter 03
01:09:44.638 : :Chapter 04
01:28:37.186 : :Chapter 05
01:47:01.623 : :Chapter 06
pb.wtf



Скачать Женщина в огне через торрент http://lostpix.com/thumbs/2020-01/14/3241j6riho2en0zkuvze2dl9k.png Скачать фильм Женщина в огне через торрент бесплантно в хорошем качестве Описание: В маленьком городке в штате Пенсильвания у 32-летней женщины пропадает дочь, оставив маме новорожденного внука. Фильм описывает ... 10 10 3
Торрент: Зарегистрирован [2020-01-19 16:55] · скачан: 22 раз
Статус: T временная
Размер: 5.55 GB
Как cкачать? Как скачать Женщина в огне через торрент | qTorrent

% Раздел Тема Автор DL S | L
T Фильмы [HD 720p, 1080p] (Хороший звук DUB, MVO) [ 12.42 GB ] Женщина в огне / American Woman [2018 BDRip 1080p] MVO [Онлайн кинотеатр] bober100 Скачать
2 | 0
T Фильмы 2018 [DVDrip, WEB-DLRip, HDrip] (DUB, MVO) [ 1.45 GB ] Женщина в огне / American Woman [2018 BDRip] MVO [Онлайн кинотеатр] bober100 Скачать
1 | 0

28-11-2019 20:33  

Отключить всю рекламу на сайте

    Дорогой пользователь! Огромная просьба, поблагодарите релизера, оцените раздачу и оставьте свои комментарий, если Вы скачали Женщина в огне через торрент бесплатно! Внесите свою лепту в развитие PiratBit!
    Комментировать посты могут только пользователи прошедшие не сложную регистрацию
    Показать сообщения:    

    Женщина в огне через торрент
    Скачать бесплатно Женщина в огне
    Женщина в огне скачать торрент
    Женщина в огне смотреть онлайн
    Cкачать фильм Женщина в огне бесплатно
    Женщина в огне скачать торрент в хорошем качестве
    Женщина в огне смотреть онлайн бесплатно в хорошем качестве


    Вы не можете начинать темы
    Вы не можете отвечать на сообщения
    Вы не можете редактировать свои сообщения
    Вы не можете удалять свои сообщения
    Вы не можете голосовать в опросах
    Вы не можете прикреплять файлы к сообщениям
    Вы можете скачивать файлы