Всегда рабочее зеркало без VPN и Proxy просто перед .vidak.icu напиши любое слово или цифру, Пример http://vr0f.vidak.icu

MVO

2 сезон

1 сезон

1

1 сезон

iTunes

2 сезон

13

1 сезон

Распродажа

pack

Рекомендуем

Пиратка

30

ВАЖНО

RePack

MK11

RePack

jed

RePack

fifa19

RePack

RDR2

RePack

NEED FOR SPEED™ PAYBACK

Кинопоиск HD

6 сезон

 Острые козырьки 6 сезон

Все сериалы

все сериалы на PB.wtf

RePack

FAR CRY 5

Anonymous, нам критически не хватает 5601 руб. на оплату серверов и переферии за Апрель, помоги нам пожалуйста, вся надежда только на тебя. В благодарность мы отключим тебе всю рекламу на сайте!

×
  
Magnet ссылка

Джокер / Joker (Тодд Филлипс) [2019, Триллер, драма, криминал, UHD BDRip 2160p] [SDR] DUB [Лицензия] (rus, ukr) +MVO [HDRezka Studio] + AVO [М. Чадов] pb.wtf

Джокер через торрент pb.wtf

Размер: 39.62 GB | Добавлен: 2 года 4 мес. назад | Торрент скачан:342 раза
Смотреть онлайн Джокер | Скачать    Ребята, помогите собрать деньги на оплату серверов!!!

22-12-2019 18:30 Джокер Скачать торрент  

Джокер / Joker
Год выпуска: 2019
Страна: Канада, США
Студия: Warner Bros., Village Roadshow Pictures, DC Entertainment, DC Comics, 22 & Indiana Pictures
Жанр: Триллер, драма, криминал
Продолжительность: 02:01:49
Перевод:
#1: Дублированный | Лицензия
#2: Профессиональный (многоголосый) | HDRezka Studio
#3: Авторский | М. Чадов
Субтитры: Русские (Forced, full [iTunes]), (Forced, full [Enigma]), английские

Режиссер: Тодд Филлипс

rating

В ролях:

Хоакин Феникс (Arthur Fleck), Роберт Де Ниро (Murray Franklin), Зази Битц (Sophie Dumond), Фрэнсис Конрой (Penny Fleck), Бретт Каллен (Thomas Wayne), Шей Уигэм (Detective Burke), Билл Кэмп (Detective Garrity), Гленн Флешлер (Randall), Ли Гилл (Gary), Джош Пэйс (Hoyt Vaughn), Рокко Луна (GiGi Dumond), Марк Мэрон (Gene Ufland)
Описание: Готэм, начало 1980-х годов. Комик Артур Флек живет с больной матерью, которая с детства учит его «ходить с улыбкой». Пытаясь нести в мир хорошее и дарить людям радость, Артур сталкивается с человеческой жестокостью и постепенно приходит к выводу, что этот мир получит от него не добрую улыбку, а ухмылку злодея Джокера.

Качество: UHD BDRip 2160p
Формат: MKV

Видео: HEVC SDR, 43.0 Mбит/с, 3840x2076, 23.976 кадр/с, 10 бит
Аудио #01: 48 kHz, AC3, 5.1, 448 Kbps | Дублированный | RUS |
Аудио #02: 48 kHz, AC3, 2.0, 192 Kbps | HDRezka Studio | RUS |
Аудио #03: 48 kHz, AC3, 5.1, 640 Kbps | Авторский | RUS |
Аудио #04: 48 kHz, DTS, 5.1, 1510 Kbps | Авторский | RUS |
Аудио #05: 48 kHz, AC3, 2.0, 160 Kbps | Дублированный | UKR |
Аудио #06: 48 kHz, AC3, 5.1, 640 Kbps | Оригинал | ENG |
скриншот  скриншот  скриншот  

скриншот  скриншот  скриншот  

Общее
Уникальный идентификатор : 254266947427969864198423914751074956522 (0xBF4A08650D9098CF9D61EFD74D36F4EA)
Полное имя : G:\Joker.2019.BDRip.x265.2160p.10-bit.SDR.Master5.mkv
Формат : Matroska
Версия формата : Version 4
Размер файла : 39,6 Гбайт
Продолжительность : 2 ч. 1 м.
Общий поток : 46,6 Мбит/сек
Название фильма : Joker.2019.BDRip.x265.2160p.10-bit.SDR.Master5
Дата кодирования : UTC 2019-12-27 14:11:04
Программа кодирования : mkvmerge v7.9.0 ('Birds') 64bit
Библиотека кодирования : libebml v1.3.1 + libmatroska v1.4.2
Обложка : Yes
Attachments : small_cover.jpg / small_cover_land.jpg / cover.jpg / cover_land.jpg / cover.jpg

Видео
Идентификатор : 1
Формат : HEVC
Формат/Информация : High Efficiency Video Coding
Профиль формата : Main 10@L5.1@High
Идентификатор кодека : V_MPEGH/ISO/HEVC
Продолжительность : 2 ч. 1 м.
Битрейт : 43,0 Мбит/сек
Ширина : 3840 пикселей
Высота : 2076 пикселей
Соотношение сторон : 1,85:1
Режим частоты кадров : Постоянный
Частота кадров : 23,976 (24000/1001) кадра/сек
Цветовое пространство : YUV
Субдискретизация насыщенности : 4:2:0
Битовая глубина : 10 бит
Бит/(Пиксели*Кадры) : 0.225
Размер потока : 36,6 Гбайт (92%)
Заголовок : Joker.2019.BDRip.x265.2160p.10-bit.SDR.Master5
Библиотека кодирования : x265 3.0+1-ed72af837053:[Windows][GCC 8.2.0][64 bit] 10bit
Настройки программы : cpuid=1111039 / frame-threads=16 / numa-pools=36 / wpp / no-pmode / no-pme / no-psnr / no-ssim / log-level=2 / input-csp=1 / input-res=3840x2076 / interlace=0 / total-frames=175243 / level-idc=51 / high-tier=1 / uhd-bd=0 / ref=3 / no-allow-non-conformance / repeat-headers / annexb / aud / hrd / info / hash=0 / no-temporal-layers / no-open-gop / min-keyint=1 / keyint=24 / gop-lookahead=0 / bframes=4 / b-adapt=2 / b-pyramid / bframe-bias=0 / rc-lookahead=25 / lookahead-slices=4 / scenecut=40 / radl=0 / no-splice / no-intra-refresh / ctu=64 / min-cu-size=8 / no-rect / no-amp / max-tu-size=32 / tu-inter-depth=1 / tu-intra-depth=1 / limit-tu=0 / rdoq-level=0 / dynamic-rd=0.00 / no-ssim-rd / signhide / no-tskip / nr-intra=0 / nr-inter=0 / no-constrained-intra / strong-intra-smoothing / max-merge=2 / limit-refs=3 / no-limit-modes / me=1 / subme=2 / merange=57 / temporal-mvp / weightp / no-weightb / no-analyze-src-pics / deblock=0:0 / no-sao / no-sao-non-deblock / rd=3 / no-early-skip / rskip / no-fast-intra / no-tskip-fast / no-cu-lossless / no-b-intra / no-splitrd-skip / rdpenalty=0 / psy-rd=2.00 / psy-rdoq=0.00 / no-rd-refine / no-lossless / cbqpoffs=0 / crqpoffs=0 / rc=crf / crf=16.0 / qcomp=0.60 / qpstep=4 / stats-write=0 / stats-read=0 / vbv-maxrate=160000 / vbv-bufsize=160000 / vbv-init=0.9 / crf-max=0.0 / crf-min=0.0 / ipratio=1.40 / pbratio=1.30 / aq-mode=1 / aq-strength=1.00 / cutree / zone-count=0 / no-strict-cbr / qg-size=32 / no-rc-grain / qpmax=69 / qpmin=0 / no-const-vbv / sar=1 / overscan=0 / videoformat=5 / range=0 / colorprim=2 / transfer=2 / colormatrix=2 / chromaloc=0 / display-window=0 / max-cll=0,0 / min-luma=0 / max-luma=1023 / log2-max-poc-lsb=8 / vui-timing-info / vui-hrd-info / slices=1 / opt-qp-pps / opt-ref-list-length-pps / no-multi-pass-opt-rps / scenecut-bias=0.05 / no-opt-cu-delta-qp / no-aq-motion / no-hdr / no-hdr-opt / no-dhdr10-opt / no-idr-recovery-sei / analysis-reuse-level=5 / scale-factor=0 / refine-intra=0 / refine-inter=0 / refine-mv=0 / refine-ctu-distortion=0 / no-limit-sao / ctu-info=0 / no-lowpass-dct / refine-analysis-type=0 / copy-pic=1 / max-ausize-factor=1.0 / no-dynamic-refine / no-single-sei / no-hevc-aq / qp-adaptation-range=1.00
Default : Да
Forced : Нет

Аудио #1
Идентификатор : 2
Формат : AC-3
Формат/Информация : Audio Coding 3
Коммерческое название : Dolby Digital
Идентификатор кодека : A_AC3
Продолжительность : 2 ч. 1 м.
Вид битрейта : Постоянный
Битрейт : 448 Кбит/сек
Каналы : 6 каналов
Channel layout : L R C LFE Ls Rs
Частота : 48,0 КГц
Частота кадров : 31,250 кадров/сек (1536 SPF)
Битовая глубина : 16 бит
Метод сжатия : С потерями
Размер потока : 390 Мбайт (1%)
Заголовок : Dub License
Язык : Russian
ServiceKind/String : Complete Main
Default : Да
Forced : Да

Аудио #2
Идентификатор : 3
Формат : AC-3
Формат/Информация : Audio Coding 3
Коммерческое название : Dolby Digital
Идентификатор кодека : A_AC3
Продолжительность : 2 ч. 1 м.
Вид битрейта : Постоянный
Битрейт : 192 Кбит/сек
Каналы : 2 канала
Channel layout : L R
Частота : 48,0 КГц
Частота кадров : 31,250 кадров/сек (1536 SPF)
Битовая глубина : 16 бит
Метод сжатия : С потерями
Размер потока : 167 Мбайт (0%)
Заголовок : MVO HDRezka Studio
Язык : Russian
ServiceKind/String : Complete Main
Default : Нет
Forced : Нет

Аудио #3
Идентификатор : 4
Формат : AC-3
Формат/Информация : Audio Coding 3
Коммерческое название : Dolby Digital
Идентификатор кодека : A_AC3
Продолжительность : 2 ч. 1 м.
Вид битрейта : Постоянный
Битрейт : 640 Кбит/сек
Каналы : 6 каналов
Channel layout : L R C LFE Ls Rs
Частота : 48,0 КГц
Частота кадров : 31,250 кадров/сек (1536 SPF)
Битовая глубина : 16 бит
Метод сжатия : С потерями
Размер потока : 558 Мбайт (1%)
Заголовок : AVO Chadov
Язык : Russian
ServiceKind/String : Complete Main
Default : Нет
Forced : Нет

Аудио #4
Идентификатор : 5
Формат : DTS
Формат/Информация : Digital Theater Systems
Идентификатор кодека : A_DTS
Продолжительность : 2 ч. 1 м.
Вид битрейта : Постоянный
Битрейт : 1509 Кбит/сек
Каналы : 6 каналов
Channel layout : C L R Ls Rs LFE
Частота : 48,0 КГц
Частота кадров : 93,750 кадра/сек (512 SPF)
Битовая глубина : 24 бит
Метод сжатия : С потерями
Размер потока : 1,28 Гбайт (3%)
Заголовок : AVO Chadov
Язык : Russian
Default : Нет
Forced : Нет

Аудио #5
Идентификатор : 6
Формат : AC-3
Формат/Информация : Audio Coding 3
Коммерческое название : Dolby Digital
Идентификатор кодека : A_AC3
Продолжительность : 2 ч. 1 м.
Вид битрейта : Постоянный
Битрейт : 160 Кбит/сек
Каналы : 2 канала
Channel layout : L R
Частота : 48,0 КГц
Частота кадров : 31,250 кадров/сек (1536 SPF)
Битовая глубина : 16 бит
Метод сжатия : С потерями
Размер потока : 139 Мбайт (0%)
Заголовок : iTunes
Язык : Ukrainian
ServiceKind/String : Complete Main
Default : Нет
Forced : Нет

Аудио #6
Идентификатор : 7
Формат : AC-3
Формат/Информация : Audio Coding 3
Коммерческое название : Dolby Digital
Идентификатор кодека : A_AC3
Продолжительность : 2 ч. 1 м.
Вид битрейта : Постоянный
Битрейт : 640 Кбит/сек
Каналы : 6 каналов
Channel layout : L R C LFE Ls Rs
Частота : 48,0 КГц
Частота кадров : 31,250 кадров/сек (1536 SPF)
Битовая глубина : 16 бит
Метод сжатия : С потерями
Размер потока : 558 Мбайт (1%)
Заголовок : Original
Язык : English
ServiceKind/String : Complete Main
Default : Нет
Forced : Нет

Текст #1
Идентификатор : 8
Формат : UTF-8
Идентификатор кодека : S_TEXT/UTF8
Идентификатор кодека/Информация : UTF-8 Plain Text
Продолжительность : 1 ч. 54 м.
Битрейт : 5 бит/сек
ElementCount : 72
Размер потока : 4,41 Кбайт (0%)
Заголовок : Forced
Язык : Russian
Default : Да
Forced : Да

Текст #2
Идентификатор : 9
Формат : UTF-8
Идентификатор кодека : S_TEXT/UTF8
Идентификатор кодека/Информация : UTF-8 Plain Text
Продолжительность : 1 ч. 57 м.
Битрейт : 75 бит/сек
ElementCount : 1108
Размер потока : 64,8 Кбайт (0%)
Заголовок : Full biTunesB
Язык : Russian
Default : Нет
Forced : Нет

Текст #3
Идентификатор : 10
Формат : UTF-8
Идентификатор кодека : S_TEXT/UTF8
Идентификатор кодека/Информация : UTF-8 Plain Text
Продолжительность : 1 ч. 54 м.
Битрейт : 8 бит/сек
ElementCount : 101
Размер потока : 7,51 Кбайт (0%)
Заголовок : Forced bEnigmaB
Язык : Russian
Default : Нет
Forced : Нет

Текст #4
Идентификатор : 11
Формат : UTF-8
Идентификатор кодека : S_TEXT/UTF8
Идентификатор кодека/Информация : UTF-8 Plain Text
Продолжительность : 1 ч. 55 м.
Битрейт : 79 бит/сек
ElementCount : 1221
Размер потока : 67,5 Кбайт (0%)
Заголовок : Full bEnigmaB
Язык : Russian
Default : Нет
Forced : Нет

Текст #5
Идентификатор : 12
Формат : UTF-8
Идентификатор кодека : S_TEXT/UTF8
Идентификатор кодека/Информация : UTF-8 Plain Text
Продолжительность : 1 ч. 54 м.
Битрейт : 44 бит/сек
ElementCount : 1326
Размер потока : 36,9 Кбайт (0%)
Заголовок : Full
Язык : English
Default : Нет
Forced : Нет

Текст #6
Идентификатор : 13
Формат : UTF-8
Идентификатор кодека : S_TEXT/UTF8
Идентификатор кодека/Информация : UTF-8 Plain Text
Продолжительность : 1 ч. 58 м.
Битрейт : 55 бит/сек
ElementCount : 1735
Размер потока : 47,9 Кбайт (0%)
Заголовок : SDH
Язык : English
Default : Нет
Forced : Нет

Меню
00:00:01.700 : en:Studio Logo
00:00:15.700 : en:Makeup
00:01:32.700 : en:Broken Sign
00:03:43.700 : en:Therapy
00:07:42.700 : en:Bus
00:09:15.700 : en:Meeting Murray
00:15:21.700 : en:Protection
00:19:13.700 : en:Enter Sophie
00:21:01.700 : en:Bath
00:23:34.700 : en:Following
00:24:53.700 : en:Comedy Scout
00:26:01.700 : en:Invite
00:27:59.700 : en:Hospital Gig
00:29:23.700 : en:Subway Scuffle
00:34:10.700 : en:Fleeing
00:36:14.700 : en:First Kiss
00:36:46.700 : en:Punching Out
00:38:14.700 : en:Wayne Interview
00:39:56.700 : en:Negative Thoughts
00:42:14.700 : en:Open Mic
00:45:15.700 : en:Date
00:46:21.700 : en:Letter to Wayne
00:50:23.700 : en:Clipping
00:51:12.700 : en:Wayne Manor
00:55:16.700 : en:Emergency
00:56:19.700 : en:Detectives
00:58:32.700 : en:Arthur on T.V.
01:01:01.700 : en:Protest Coverage
01:02:18.700 : en:Meeting Wayne
01:07:11.700 : en:Invitation
01:09:36.700 : en:Arkham
01:13:26.700 : en:Penny's File
01:15:41.700 : en:Sophie's Place
01:19:49.700 : en:Life's a Comedy
01:22:12.700 : en:Practice
01:24:28.700 : en:Randall and Gary visit Arthur
01:30:15.700 : en:Stairwell Waltz
01:34:51.700 : en:Dressing Room
01:37:02.700 : en:Arthur's Big Moment
01:46:35.700 : en:Riot
01:49:05.700 : en:Crime Alley
01:50:02.700 : en:Joker's Fans
01:52:33.700 : en:Thinking of a Joke
01:55:39.700 : en:End Credits

pb.wtf



Скачать Джокер через торрент https://a.radikal.ru/a12/1912/6e/53ba04402db4.jpg Скачать, смотреть онлайн Джокер бесплантно в хорошем качестве Описание: Готэм, начало 1980-х годов. Комик Артур Флек живет с больной матерью, которая с детства учит его «ходить с улыбкой». Пытаясь ... 9.8 10 12
Info! Золотая раздача, скачанное не засчитывается.
Торрент: Зарегистрирован [2019-12-28 00:16] · скачан: 342 раз
Статус: √ проверено
Размер: 39.62 GB
Как cкачать? Как скачать Джокер через торрент | UTorrent

% Раздел Тема Автор DL S | L
Фильмы [HD 720p, 1080p] (Хороший звук DUB, MVO) [ 11.56 GB ] Джокер / Joker [2019 BDRip 1080p] DUB [] +MVO [HDRezka Studio] +AVO [М. Чадов] bober100 Скачать
3 | 0
Ultra HD (UHD: 2K, 4K, 8K) — видео сверхвысокой чёткости [ 43.15 GB ] Джокер / Joker [2019 UHD BDRemux 2160p] [Dolby Vision TV] DUB [] +MVO [HDRezka Studio] bober100 Скачать
1 | 0
Ultra HD (UHD: 2K, 4K, 8K) — видео сверхвысокой чёткости [ 56.03 GB ] Джокер / Joker [2019 UHD BDRemux 2160p] [Dolby Vision] DUB [] +MVO [HDRezka Studio] bober100 Скачать
1 | 0
Ultra HD (UHD: 2K, 4K, 8K) — видео сверхвысокой чёткости [ 52.06 GB ] Джокер / Joker [2019 UHD BDRemux 2160p] DUB [] + MVO [HDRezka Studio] + AVO [М. Чадов] sheker187 Скачать
1 | 0
Ultra HD (UHD: 2K, 4K, 8K) — видео сверхвысокой чёткости [ 15.39 GB ] Джокер / Joker [2019 UHD BDRip 2160p] DUB + MVO [HDRezka Studio] + AVO [М. Чадов] sheker187 Скачать
1 | 0
Фильмы (Blu-ray, BD-Remux, HDDVD) [ 26.19 GB ] Джокер / Joker [2019 BD Remux 1080p] DUB [] +MVO [HDRezka Studio] +AVO [М. Чадов] bober100 Скачать
1 | 0
Фильмы [HD 720p, 1080p] (Хороший звук DUB, MVO) [ 7.31 GB ] Джокер / Joker [2019 BDRip 720p] DUB [] +MVO [HDRezka Studio] +AVO [М. Чадов] bober100 Скачать
1 | 0


Последний раз редактировалось: bober100 (2020-03-25 04:28), всего редактировалось 3 раз(а)

28-11-2019 20:33  

Отключить всю рекламу на сайте

27-12-2019 15:57 Джокер Скачать торрент  

Спасибо, качество очень даже порадовало.pb.wtf



09-01-2020 18:54 Джокер Скачать торрент  

Такая мутная картина. 3 дня досматривалpb.wtf



23-03-2020 15:07 Джокер Скачать торрент  

Я такую хр*нь уже давно не смотрел. Зря только 2 часа убилpb.wtf



    Дорогой пользователь! Огромная просьба, поблагодарите релизера, оцените раздачу и оставьте свои комментарий, если Вы скачали Джокер через торрент бесплатно!
    Комментировать посты могут только пользователи прошедшие не сложную регистрацию
    Показать сообщения:    

    Джокер через торрент
    Скачать бесплатно Джокер
    Джокер скачать торрент
    Джокер смотреть онлайн
    Cкачать фильм Джокер бесплатно
    Джокер скачать торрент в хорошем качестве
    Джокер смотреть онлайн бесплатно в хорошем качестве


    Вы не можете начинать темы
    Вы не можете отвечать на сообщения
    Вы не можете редактировать свои сообщения
    Вы не можете удалять свои сообщения
    Вы не можете голосовать в опросах
    Вы не можете прикреплять файлы к сообщениям
    Вы можете скачивать файлы