1 сезон

1 сезон

iTunes

1

КиноПоиск HD

Кинопоиск HD

iTunes

13

1 сезон

RePack

30

Новинка

ВАЖНО

ИГРА 18+

pack

RePack

MK11
pack

Легкие деньги

RePack

jed

RePack

fifa19

RePack

RDR2

RePack

NEED FOR SPEED™ PAYBACK

4 сезон

9 сезон

Бесстыжие 9 сезон

Все сериалы

все сериалы на PB.wtf

RePack

FAR CRY 5
  
Magnet ссылка

Бассейн / Swimming pool (Франсуа Озон) [2003, драма, криминал, детектив, триллер, BDRip (AVC) by msltel] MVO | Расширенная версия pb.wtf

Бассейн через торрент pb.wtf

Размер: 2.81 GB | Добавлен: 1 год 3 мес. назад | Торрент скачан:29 раз
Скачать  

23-12-2019 07:50 Бассейн Скачать торрент  

Название: Бассейн
Оригинальное название: Swimming Pool
Год выпуска: 2003
Страна: Франция, Великобритания
Жанр: драма, криминал, детектив, триллер
Продолжительность: 01:42:36
Перевод: профессиональный многоголосый

Режиссер: Франсуа Озон
В ролях: Шарлотта Рэмплинг, Людивин Санье, Чарльз Дэнс, Жан-Мари Ламур, Марк Файоль, Мирей Моссе, Мишель Фо, Жан-Клод Лека, Эмили Гавуа-Кан, Эрарде Форестали

О фильме: Английская писательница, автор детективных романов Сара Мортон приезжает в дом своего издателя Джона Бослода на юге Франции, чтобы заняться созданием нового романа. Она настраивается на творчество, знакомится с местными достопримечательностями, привыкает к новой обстановке. По натуре Сара интроверт: она не любит общаться даже с поклонниками своего таланта. Едва она принимается за работу, в доме появляется взбалмошная сексапильная Жюли, дочь хозяина. Она постоянно болтает и слушает музыку на большой громкости, а по ночам водит к себе мужчин, причём каждую ночь нового. Однажды, после одной из бурных ночей Жюли, выясняется, что очередной любовник мёртв по её вине...



Качество: BDRip (AVC)
Формат: MKV
Видео: MPEG-4 AVC, 3245 Кбит/с, 1024x556, 24 кадр/с
Аудио 1: русский, AC3, 224 kbps, 2 ch, 48 kHz [закадровый многоголосый]
Аудио 2: английский, AC3, 448 kbps, 6 ch, 48 kHz [оригинал]
Субтитры 1: русские
Субтитры 2: английские
Субтитры 3: немецкие
Главы/чаптеры
Общее
Уникальный идентификатор : 193381511360658006568344972498851331780 (0x917BECA1ADFB5EC4900667DD62EFFEC4)
Полное имя : D:\Video\Бассейн.2003.Unrated.BDRip (AVC) by msltel.mkv
Формат : Matroska
Версия формата : Version 4
Размер файла : 2,81 Гбайт
Продолжительность : 1 ч. 42 м.
Общий поток : 3919 Кбит/сек
Название фильма : Rip by msltel
Дата кодирования : UTC 2019-12-23 06:58:43
Программа кодирования : mkvmerge v8.2.0 ('World of Adventure') 64bit
Библиотека кодирования : libebml v1.3.1 + libmatroska v1.4.2

Видео
Идентификатор : 1
Формат : AVC
Формат/Информация : Advanced Video Codec
Профиль формата : High@L4.1
Настройки формата : CABAC / 9 Ref Frames
Параметр CABAC формата : Да
Параметр RefFrames формата : 9 кадров
Идентификатор кодека : V_MPEG4/ISO/AVC
Продолжительность : 1 ч. 42 м.
Битрейт : 3245 Кбит/сек
Ширина : 1024 пикселя
Высота : 556 пикселей
Соотношение сторон : 1,85:1
Режим частоты кадров : Постоянный
Частота кадров : 24,000 кадра/сек
Цветовое пространство : YUV
Субдискретизация насыщенности : 4:2:0
Битовая глубина : 8 бит
Тип развёртки : Прогрессивная
Бит/(Пиксели*Кадры) : 0.237
Размер потока : 2,33 Гбайт (83%)
Библиотека кодирования : x264 core 157 r2935 545de2f
Настройки программы : cabac=1 / ref=9 / deblock=1:-2:-2 / analyse=0x3:0x113 / me=umh / subme=11 / psy=1 / psy_rd=1.00:0.15 / mixed_ref=1 / me_range=32 / chroma_me=1 / trellis=2 / 8x8dct=1 / cqm=0 / deadzone=21,11 / fast_pskip=0 / chroma_qp_offset=-3 / threads=6 / lookahead_threads=1 / sliced_threads=0 / nr=0 / decimate=1 / interlaced=0 / bluray_compat=0 / constrained_intra=0 / bframes=11 / b_pyramid=2 / b_adapt=2 / b_bias=0 / direct=1 / weightb=1 / open_gop=0 / weightp=2 / keyint=230 / keyint_min=23 / scenecut=40 / intra_refresh=0 / rc_lookahead=40 / rc=crf / mbtree=0 / crf=19.7 / qcomp=0.60 / qpmin=0 / qpmax=69 / qpstep=4 / vbv_maxrate=50000 / vbv_bufsize=62500 / crf_max=0.0 / nal_hrd=none / filler=0 / ip_ratio=1.40 / pb_ratio=1.30 / aq=1:1.00
Язык : English
Default : Да
Forced : Нет

Аудио #1
Идентификатор : 2
Формат : AC-3
Формат/Информация : Audio Coding 3
Коммерческое название : Dolby Digital
Идентификатор кодека : A_AC3
Продолжительность : 1 ч. 42 м.
Вид битрейта : Постоянный
Битрейт : 224 Кбит/сек
Каналы : 2 канала
ChannelLayout : L R
Частота : 48,0 КГц
Частота кадров : 31,250 кадров/сек (1536 SPF)
Метод сжатия : С потерями
Размер потока : 164 Мбайт (6%)
Заголовок : MVO
Язык : Russian
ServiceKind/String : Complete Main
Default : Да
Forced : Нет

Аудио #2
Идентификатор : 3
Формат : AC-3
Формат/Информация : Audio Coding 3
Коммерческое название : Dolby Digital
Идентификатор кодека : A_AC3
Продолжительность : 1 ч. 42 м.
Вид битрейта : Постоянный
Битрейт : 448 Кбит/сек
Каналы : 6 каналов
ChannelLayout : L R C LFE Ls Rs
Частота : 48,0 КГц
Частота кадров : 31,250 кадров/сек (1536 SPF)
Метод сжатия : С потерями
Размер потока : 329 Мбайт (11%)
Заголовок : original
Язык : English
ServiceKind/String : Complete Main
Default : Нет
Forced : Нет

Текст #1
Идентификатор : 4
Формат : UTF-8
Идентификатор кодека : S_TEXT/UTF8
Идентификатор кодека/Информация : UTF-8 Plain Text
Продолжительность : 1 ч. 36 м.
Битрейт : 57 бит/сек
ElementCount : 685
Размер потока : 41,0 Кбайт (0%)
Заголовок : русские
Язык : Russian
Default : Нет
Forced : Нет

Текст #2
Идентификатор : 5
Формат : UTF-8
Идентификатор кодека : S_TEXT/UTF8
Идентификатор кодека/Информация : UTF-8 Plain Text
Продолжительность : 1 ч. 34 м.
Битрейт : 37 бит/сек
ElementCount : 777
Размер потока : 26,0 Кбайт (0%)
Заголовок : английские
Язык : English
Default : Нет
Forced : Нет

Текст #3
Идентификатор : 6
Формат : UTF-8
Идентификатор кодека : S_TEXT/UTF8
Идентификатор кодека/Информация : UTF-8 Plain Text
Продолжительность : 1 ч. 34 м.
Битрейт : 36 бит/сек
ElementCount : 547
Размер потока : 25,3 Кбайт (0%)
Заголовок : немецкие
Язык : German
Default : Нет
Forced : Нет

Меню
00:00:00.000 : :Chapter 01
00:08:34.125 : :Chapter 02
00:14:40.708 : :Chapter 03
00:24:16.333 : :Chapter 04
00:34:44.166 : :Chapter 05
00:40:52.583 : :Chapter 06
00:48:47.958 : :Chapter 07
00:58:33.625 : :Chapter 08
01:05:03.458 : :Chapter 09
01:13:12.750 : :Chapter 10
01:26:17.708 : :Chapter 11
01:34:18.791 : :Chapter 12
01:39:04.208 : :Chapter 13
01:42:36.250 : :Chapter 14
pb.wtf



Скачать Бассейн через торрент https://a.radikal.ru/a23/1912/e4/1cb0c37084d4.png Скачать фильм Бассейн через торрент бесплантно в хорошем качестве О фильме: Английская писательница, автор детективных романов Сара Мортон приезжает в дом своего издателя Джона Бослода на юге Франции, ... 5 10 1
Торрент: Зарегистрирован [2019-12-23 07:50] · скачан: 29 раз
Статус: √ проверено
Размер: 2.81 GB
Как cкачать? Как скачать Бассейн через торрент | UTorrent

% Раздел Тема Автор DL S | L
Фильмы [HD 720p, 1080p] (Хороший звук DUB, MVO) [ 14.18 GB ] Бассейн / Swimming pool [2003 BDRip 1080p by msltel] MVO | Расширенная версия msltel Скачать
1 | 0
Фильмы [HD 720p, 1080p] (Хороший звук DUB, MVO) [ 4.79 GB ] Бассейн / Swimming pool [2003 BDRip 720p by msltel] MVO | Расширенная версия msltel Скачать
1 | 0

28-11-2019 20:33  

Отключить всю рекламу на сайте

    Дорогой пользователь! Огромная просьба, поблагодарите релизера, оцените раздачу и оставьте свои комментарий, если Вы скачали Бассейн через торрент бесплатно! Внесите свою лепту в развитие PiratBit!
    Комментировать посты могут только пользователи прошедшие не сложную регистрацию
    Показать сообщения:    

    Бассейн через торрент
    Скачать бесплатно Бассейн
    Бассейн скачать торрент
    Бассейн смотреть онлайн
    Cкачать фильм Бассейн бесплатно
    Бассейн скачать торрент в хорошем качестве
    Бассейн смотреть онлайн бесплатно в хорошем качестве


    Вы не можете начинать темы
    Вы не можете отвечать на сообщения
    Вы не можете редактировать свои сообщения
    Вы не можете удалять свои сообщения
    Вы не можете голосовать в опросах
    Вы не можете прикреплять файлы к сообщениям
    Вы можете скачивать файлы