Ссылка на приватное зеркало нашего сайта всего за 1$. Внимание количество ограничено!!!

2 сезон

iTunes

1 сезон

1

2 сезон

2 сезон

iTunes

1 сезон

RePack

30

Новинка

ВАЖНО

ИГРА 18+

pack

RePack

MK11
pack

Забери бонус

RePack

jed

!!Акция!!

Alien_Rage

RePack

fifa19

RePack

Assassins Creed: Odyssey

RePack

NEED FOR SPEED™ PAYBACK

4 сезон

9 сезон

Бесстыжие 9 сезон

Все сериалы

все сериалы на PB.wtf

RePack

FAR CRY 5
  

Код 8 / Code 8 (Джефф Чан) [2019, Фантастика, боевик, BD Remux 1080p] DUB [iTunes] pb.wtf

Код 8 через торрент pb.wtf

Размер: 21.26 GB | Добавлен: 11 мес. назад | Торрент скачан:110 раз
Скачать  

23-12-2019 15:37 Код 8 Скачать торрент  

Код 8 / Code 8
Год выпуска: 2019
Страна: Канада
Студия: Colony Pictures Inc.
Жанр: Фантастика, боевик
Продолжительность: 01:38:24
Перевод: Дублированный | iTunes
Субтитры: Русские (Forced, full), английские

Режиссер: Джефф Чан

rating

В ролях: Стивен Амелл, Робби Амелл, Кари Матчетт, Лайсла Де Оливейра, Грег Брайк, Сон Ган, Питер Аутербридж, Шон Бенсон, Аарон Абрамс, Алекс Маллари мл.

Описание: В недалеком будущем существует небольшой процент населения Земли, обладающего сверхспособностями. Власти пытаются контролировать особенных людей, а остальные боятся их и презирают. Добродушный парень, обладающий способностью генерировать в себе энергию огромной мощности, отчаянно пытается перестать быть изгоем и встроиться в общество.

Качество: BD Remux 1080p
Формат: MKV

Видео: MPEG-4 AVC, 1920x1080, 26.9 Mbit/s, 23.976 fps
Аудио #01: 48 kHz, AC3, 5.1, 384 Kbps | iTunes | RUS |
Аудио #02: 48 kHz, DTS-HD MA, 5.1, 3666 Kbps | Оригинал | ENG |
скриншот  скриншот  скриншот  скриншот  скриншот  

General
Unique ID : 206226297561170833836203988187050935535 (0x9B25BD7C64483F63285947727EBC04EF)
Complete name : F:Video111Code.8.2019.BDREMUX.1080p.seleZen.mkv
Format : Matroska
Format version : Version 4
File size : 21.3 GiB
Duration : 1 h 38 min
Overall bit rate mode : Variable
Overall bit rate : 30.9 Mb/s
Movie name : Code 8 2019 from селезень
Encoded date : UTC 2019-12-23 13:23:08
Writing application : mkvmerge v40.0.0 ('Old Town Road + Pony') 64-bit
Writing library : libebml v1.3.9 + libmatroska v1.5.2

Video
ID : 1
Format : AVC
Format/Info : Advanced Video Codec
Format profile : High@L4.1
Format settings : CABAC / 3 Ref Frames
Format settings, CABAC : Yes
Format settings, Reference : 3 frames
Format settings, GOP : M=4, N=24
Codec ID : V_MPEG4/ISO/AVC
Duration : 1 h 38 min
Bit rate mode : Variable
Bit rate : 26.9 Mb/s
Maximum bit rate : 35.0 Mb/s
Width : 1 920 pixels
Height : 1 080 pixels
Display aspect ratio : 16:9
Frame rate mode : Constant
Frame rate : 23.976 (24000/1001) FPS
Standard : NTSC
Color space : YUV
Chroma subsampling : 4:2:0
Bit depth : 8 bits
Scan type : Progressive
Bits/(Pixel*Frame) : 0.541
Stream size : 18.5 GiB (87%)
Language : English
Default : Yes
Forced : No
Color range : Limited
Color primaries : BT.709
Transfer characteristics : BT.709
Matrix coefficients : BT.709

Audio #1
ID : 2
Format : AC-3
Format/Info : Audio Coding 3
Commercial name : Dolby Digital
Codec ID : A_AC3
Duration : 1 h 38 min
Bit rate mode : Constant
Bit rate : 384 kb/s
Channel(s) : 6 channels
Channel layout : L R C LFE Ls Rs
Sampling rate : 48.0 kHz
Frame rate : 31.250 FPS (1536 SPF)
Bit depth : 16 bits
Compression mode : Lossy
Stream size : 270 MiB (1%)
Title : iTunes
Language : Russian
Service kind : Complete Main
Default : Yes
Forced : Yes

Audio #2
ID : 3
Format : DTS XLL
Format/Info : Digital Theater Systems
Commercial name : DTS-HD Master Audio
Codec ID : A_DTS
Duration : 1 h 38 min
Bit rate mode : Variable
Bit rate : 3 666 kb/s
Channel(s) : 6 channels
Channel layout : C L R Ls Rs LFE
Sampling rate : 48.0 kHz
Frame rate : 93.750 FPS (512 SPF)
Bit depth : 24 bits
Compression mode : Lossless
Stream size : 2.52 GiB (12%)
Title : Original
Language : English
Default : No
Forced : No

Text #1
ID : 4
Format : UTF-8
Codec ID : S_TEXT/UTF8
Codec ID/Info : UTF-8 Plain Text
Duration : 13 min 55 s
Bit rate : 0 b/s
Count of elements : 2
Stream size : 35.0 Bytes (0%)
Title : Forced
Language : Russian
Default : Yes
Forced : Yes

Text #2
ID : 5
Format : UTF-8
Codec ID : S_TEXT/UTF8
Codec ID/Info : UTF-8 Plain Text
Duration : 1 h 27 min
Bit rate : 76 b/s
Count of elements : 990
Stream size : 48.7 KiB (0%)
Title : Full
Language : Russian
Default : No
Forced : No

Text #3
ID : 6
Format : UTF-8
Codec ID : S_TEXT/UTF8
Codec ID/Info : UTF-8 Plain Text
Duration : 1 h 30 min
Bit rate : 51 b/s
Count of elements : 1231
Stream size : 33.8 KiB (0%)
Title : Full
Language : English
Default : No
Forced : No

Text #4
ID : 7
Format : UTF-8
Codec ID : S_TEXT/UTF8
Codec ID/Info : UTF-8 Plain Text
Duration : 1 h 30 min
Bit rate : 56 b/s
Count of elements : 1457
Stream size : 37.3 KiB (0%)
Title : SDH
Language : English
Default : No
Forced : No

Menu
00:00:00.000 : en:Chapter 1
00:12:33.961 : en:Chapter 2
00:25:17.390 : en:Chapter 3
00:36:39.197 : en:Chapter 4
00:51:50.273 : en:Chapter 5
01:05:27.548 : en:Chapter 6
01:13:58.767 : en:Chapter 7
01:28:48.865 : en:Chapter 8

pb.wtf



Скачать Код 8 через торрент http://pic.kartinco.top/images/6/stazu.jpg Скачать фильм Код 8 через торрент бесплантно в хорошем качестве Описание: В недалеком будущем существует небольшой процент населения Земли, обладающего сверхспособностями. Власти пытаются контролировать ... 10 10 7
Торрент: Зарегистрирован [2019-12-23 15:37] · скачан: 110 раз
Статус: √ проверено
Размер: 21.26 GB
Как cкачать? Как скачать Код 8 через торрент | qTorrent

% Раздел Тема Автор DL S | L
Фильмы (WEB-DL 720p, 1080p) [ 3.51 GB ] Код 8 / Code 8 [2019 WEB-DL 1080p] bober100 Скачать
1 | 0
Фильмы 2019-2020 [DVDrip, WEB-DLRip, HDrip] (DUB, MVO) [ 1.42 GB ] Код 8 / Code 8 [2019 BDRip] - Twi7ter Скачать
19 | 0
Фильмы (WEB-DL 720p, 1080p) [ 3.18 GB ] Код 8 / Code 8 [2019 WEB-DL 720p] bober100 Скачать
3 | 0
Фильмы [HD 720p, 1080p] (Хороший звук DUB, MVO) [ 10.86 GB ] Код 8 / Code 8 [2019 BDRip 1080p] bober100 Скачать
1 | 0
Фильмы [HD 720p, 1080p] (Хороший звук DUB, MVO) [ 5.11 GB ] Код 8 / Code 8 [2019 BDRip 720p] bober100 Скачать
2 | 0
Фильмы 2019-2020 [DVDrip, WEB-DLRip, HDrip] (DUB, MVO) [ 743 MB ] Код 8 / Code 8 [2019 BDRip] bober100 Скачать
1 | 0
Фильмы (WEB-DL 720p, 1080p) [ 6.62 GB ] Код 8 / Code 8 [2019 WEB-DL 1080p] [AMAZON Version] bober100 Скачать
2 | 0

28-11-2019 20:33  

Отключить всю рекламу на сайте

    Дорогой пользователь! Огромная просьба, поблагодарите релизера, оцените раздачу и оставьте свои комментарий, если Вы скачали Код 8 через торрент бесплатно! Внесите свою лепту в развитие PiratBit!
    Комментировать посты могут только пользователи прошедшие не сложную регистрацию
    Показать сообщения:    

    Код 8 через торрент
    Скачать бесплатно Код 8
    Код 8 скачать торрент
    Код 8 смотреть онлайн
    Cкачать фильм Код 8 бесплатно
    Код 8 скачать торрент в хорошем качестве
    Код 8 смотреть онлайн бесплатно в хорошем качестве


    Вы не можете начинать темы
    Вы не можете отвечать на сообщения
    Вы не можете редактировать свои сообщения
    Вы не можете удалять свои сообщения
    Вы не можете голосовать в опросах
    Вы не можете прикреплять файлы к сообщениям
    Вы можете скачивать файлы