Лицензия

MVO

1

1 сезон

Лицензия

Лицензия

13

MVO

1 сезон

Ultimate

pack

Рекомендуем

30

Repack

ВАЖНО

ВАЖНО

Ghostwire

RePack

jed

RePack

fifa19

RePack

RDR2

RePack

NEED FOR SPEED™ PAYBACK

RePack

Кинопоиск HD

 Острые козырьки 6 сезон

6 сезон

FAR CRY 6

RePack

Лицензия

MVO

1

1 сезон

1 сезон

Лицензия

  

Рассказы Русалочки / The Little Mermaid (Блейк Дж. Харрис, Крис Бушар) [2018, фэнтези, драма, мелодрама, приключения, WEB-DL 1080p] [AMAZON Version] DUB [iTunes]

Рассказы Русалочки через торрент pb.wtf

Размер: 3.36 GB | Добавлен: 2 года 9 мес. назад | Торрент скачан:100 раз
Смотреть онлайн Рассказы Русалочки | Скачать   

24-12-2019 14:13 Рассказы Русалочки Скачать торрент  

Рассказы Русалочки / The Little Mermaid
Год выпуска: 2018
Страна: США
Жанр: фэнтези, драма, мелодрама, приключения
Продолжительность: 01:24:59
Перевод: Дублированный | iTunes
Субтитры: отсутствуют

Режиссер: Блейк Дж. Харрис, Крис Бушар

rating

В ролях: Уильям Моусли, Поппи Дрейтон, Лорето Пералта, Армандо Гутьеррез, Ширли Маклейн, Джина Гершон, Шэнна Коллинз, Крис Йонг, Джо Мари Пэйтон, Том Ноуики

Описание: Бабушка рассказывает внучкам сказку о русалочке. Девочки не верят в сказки, и тогда бабушка поведала им историю, которая произошла с ней на самом деле. Когда-то давно молодой журналист Кэм Харрисон отправился в бродячий цирк со своей младшей сестрой Элли. Там им демонстрировали настоящую русалку, живущую в резервуаре с водой, и этот феномен потряс их воображение. Но еще больше они удивились, когда русалочка предстала перед ними на двух ногах. Кэм и Элли узнают о ее судьбе и злом волшебнике, который хочет захватить ее доброе сердце, и становятся участниками невероятных приключений.

Качество: WEB-DL 1080p | AMAZON Version
Формат: MKV

Видео: MPEG-4 AVC, 4640 Kb/s, 1920x1080, 23.976 fps
Аудио #01: 48 kHz, AC3, 2.0, 384 Kbps | Дублированный | RUS |
Аудио #02: 48 kHz, AC3, 5.1, 640 Kbps | Оригинал | ENG |
скриншот  скриншот  скриншот  скриншот  

Video
ID : 1
Format : AVC
Format/Info : Advanced Video Codec
Format profile : [email protected]
Format settings : CABAC / 3 Ref Frames
Format settings, CABAC : Yes
Format settings, Reference : 3 frames
Codec ID : V_MPEG4/ISO/AVC
Duration : 1 h 25 min
Bit rate mode : Variable
Bit rate : 4 640 kb/s
Maximum bit rate : 6 960 kb/s
Width : 1 920 pixels
Height : 1 080 pixels
Display aspect ratio : 16:9
Frame rate mode : Constant
Frame rate : 23.976 (24000/1001) FPS
Color space : YUV
Chroma subsampling : 4:2:0
Bit depth : 8 bits
Scan type : Progressive
Bits/(Pixel*Frame) : 0.093
Stream size : 2.68 GiB (80%)
Title : MERMAID_2018_WEB-DL_1080p_AMAZON-BLUEBIRD
Writing library : x264 core 148 r2715 7e75228
Encoding settings : cabac=1 / ref=3 / deblock=1:0:0 / analyse=0x1:0x111 / me=umh / subme=10 / psy=1 / psy_rd=1.00:0.00 / mixed_ref=1 / me_range=24 / chroma_me=1 / trellis=2 / 8x8dct=0 / cqm=0 / deadzone=21,11 / fast_pskip=1 / chroma_qp_offset=-2 / threads=8 / lookahead_threads=1 / sliced_threads=0 / nr=0 / decimate=1 / interlaced=0 / bluray_compat=0 / stitchable=1 / constrained_intra=0 / bframes=2 / b_pyramid=0 / b_adapt=2 / b_bias=0 / direct=3 / weightb=1 / open_gop=0 / weightp=2 / keyint=48 / keyint_min=25 / scenecut=0 / intra_refresh=0 / rc_lookahead=48 / rc=2pass / mbtree=1 / bitrate=4640 / ratetol=1.0 / qcomp=0.50 / qpmin=6 / qpmax=51 / qpstep=4 / cplxblur=20.0 / qblur=0.5 / vbv_maxrate=6960 / vbv_bufsize=9280 / nal_hrd=vbr / filler=0 / ip_ratio=1.40 / aq=1:1.00
Default : Yes
Forced : No

Audio #1
ID : 2
Format : AC-3
Format/Info : Audio Coding 3
Commercial name : Dolby Digital
Codec ID : A_AC3
Duration : 1 h 25 min
Bit rate mode : Constant
Bit rate : 384 kb/s
Channel(s) : 6 channels
Channel layout : L R C LFE Ls Rs
Sampling rate : 48.0 kHz
Frame rate : 31.250 FPS (1536 SPF)
Compression mode : Lossy
Stream size : 233 MiB (7%)
Title : [DUB] DD 5.1 @ 384 kbps (iTunes)
Language : Russian
Service kind : Complete Main
Default : Yes
Forced : No

Audio #2
ID : 3
Format : E-AC-3
Format/Info : Enhanced AC-3
Commercial name : Dolby Digital Plus
Codec ID : A_EAC3
Duration : 1 h 25 min
Bit rate mode : Constant
Bit rate : 640 kb/s
Channel(s) : 6 channels
Channel layout : L R C LFE Ls Rs
Sampling rate : 48.0 kHz
Frame rate : 31.250 FPS (1536 SPF)
Compression mode : Lossy
Stream size : 389 MiB (11%)
Title : [ORIGINAL] DD+ 5.1 @ 640 kbps (Amazon)
Language : English
Service kind : Complete Main
Default : No
Forced : No

Text
ID : 4
Format : UTF-8
Codec ID : S_TEXT/UTF8
Codec ID/Info : UTF-8 Plain Text
Title : SDH
Language : English
Default : No
Forced : No




Скачать Рассказы Русалочки через торрент https://c.radikal.ru/c36/1912/81/86fd206dc226.png Скачать, смотреть онлайн Рассказы Русалочки бесплантно в хорошем качестве Описание: Бабушка рассказывает внучкам сказку о русалочке. Девочки не верят в сказки, и тогда бабушка поведала им историю, которая ... 10 10 3
Торрент: Зарегистрирован [2019-12-26 12:45] · скачан: 100 раз
Статус: √ проверено
Размер: 3.36 GB
Как cкачать? Как скачать Рассказы Русалочки через торрент | UTorrent

% Раздел Тема Автор DL S | L
T Фильмы (мультфильмы) cо спонсором показа (Новинки AVI/MKV) [ 3.52 GB ] Рассказы Русалочки / The Little Mermaid | DUB | 720p bober100 Скачать
1 | 0
Фильмы 2018 [DVDrip, WEB-DLRip, HDrip] (DUB, MVO) [ 1.37 GB ] Рассказы Русалочки / The Little Mermaid | iTunes | DLRip bober100 Скачать
1 | 0

28-11-2019 20:33  

Отключить вcю реклaмy на сайте

    Дорогой пользователь! Огромная просьба, поблагодарите релизера, оцените раздачу и оставьте свои комментарий, если Вы скачали Рассказы Русалочки через торрент бесплатно!!
    Комментировать посты могут только пользователи прошедшие не сложную регистрацию
    Показать сообщения:    


    Рассказы Русалочки через торрент
    Скачать бесплатно Рассказы Русалочки
    Рассказы Русалочки скачать торрент
    Рассказы Русалочки смотреть онлайн
    Cкачать фильм Рассказы Русалочки бесплатно
    Рассказы Русалочки скачать торрент в хорошем качестве
    Рассказы Русалочки смотреть онлайн бесплатно в хорошем качестве
    Вы не можете начинать темы
    Вы не можете отвечать на сообщения
    Вы не можете редактировать свои сообщения
    Вы не можете удалять свои сообщения
    Вы не можете голосовать в опросах
    Вы не можете прикреплять файлы к сообщениям
    Вы можете скачивать файлы