Ссылка на приватное зеркало нашего сайта всего за 1$. Внимание количество ограничено!!!

2 сезон

iTunes

1 сезон

1

iTunes

iTunes

iTunes

1 сезон

RePack

30

ИГРА 18+

pack

ВАЖНО

!!Акция!!

Alien_RageХит недели

RePack

MK11
pack

Забери бонус

RePack

jed

!!Акция!!

Alien_Rage

RePack

fifa19

RePack

Assassins Creed: Odyssey

RePack

NEED FOR SPEED™ PAYBACK

4 сезон

9 сезон

Бесстыжие 9 сезон

Все сериалы

все сериалы на PB.wtf

RePack

FAR CRY 5
  

Жажда смерти / Death Wish (Элай Рот) [2018, боевик, триллер, криминал, BDRip 720p] DUB [Лицензия] +2xAVO+MVO [UKR] pb.wtf

Жажда смерти через торрент pb.wtf

Размер: 7.15 GB | Добавлен: 9 мес. назад | Торрент скачан:102 раза
Скачать  

25-12-2019 08:57 Жажда смерти Скачать торрент  

Жажда смерти / Death Wish
Год выпуска: 2018
Страна: США Канада
Жанр: боевик, триллер, криминал
Продолжительность: 01:46:43
Перевод:
#1. Дублированный | Лицензия
#2. Авторский | Андрей Гаврилов
#3. Авторский | Михаил Чадов / без цензуры
Субтитры: Русские (full) | без цензуры, английские (full + SDH)

Режиссер: Элай Рот

rating

В ролях:

Брюс Уиллис (Paul Kersey), Винсент Д’Онофрио (Frank Kersey), Элизабет Шу (Lucy Kersey), Камила Морроне (Jordan Kersey), Дин Норрис (Detective Kevin Raines), Бо Напп (Knox), Кимберли Элиз (Detective Leonore Jackson), Лен Кариу (Ben), Джек Кеси (The Fish), Ронни Джин Блевинс (Joe), Кирби Блисс Блэнтон (Bethany), Андреас Апергис (Belligerent Dad)
Описание: Пол Керси - хирург, привыкший вытаскивать людей с того света после криминальных разборок. Но после того, как его жена и дочь становятся жертвами уличной банды, а полиция бездействует, он берет карающий меч правосудия в свои руки. Видео изобретательных убийств преступников покоряют интернет-топы, а среди жителей города расходятся слухи о неуловимом народном мстителе, которому теперь принадлежит весь город. Он мстит бодро, весело и со вкусом.

Качество: BDRip 720p
Формат: МКV

Видео: 1280x534 (2.40:1), 23.976 fps, MPEG-4 AVC ~6 421 kbps avg
Аудио №1: 48.0 kHz, AC3 Dolby Digital, 3/2 (L,C,R,l,r) + LFE ch, ~448 kbps | RUS / BD EUR
Аудио №2: 48.0 kHz, AC3 Dolby Digital, 3/2 (L,C,R,l,r) + LFE ch, ~384 kbps | RUS / А.Гаврилов
Аудио №3: 48.0 kHz, AC3 Dolby Digital, 3/2 (L,C,R,l,r) + LFE ch, ~640 kbps | RUS / М.Чадов
Аудио №4: 48.0 kHz, AC3 Dolby Digital, 2/0 (L,R) ch, ~192 kbps | UKR / MVO / студия NLO
Аудио №5: 48.0 kHz, Digital Theater Systems, 3/2 (L,C,R,l,r) + LFE ch, ~1509 kbps | ENG
скриншот  скриншот  скриншот  скриншот  скриншот  

General
Уникальный идентификатор : 87093232492244930527809181576185542209 (0x41858BE38F2E6A2D1036B3EAE3707641)
Полное имя : Death Wish BDRip 720p.mkv
Формат : Matroska
Версия формата : Version 4
Размер файла : 7,15 Гбайт
Продолжительность : 1 ч. 46 м.
Общий поток : 9598 Кбит/сек
Название фильма : Death Wish BDRip 720p
Дата кодирования : UTC 2019-12-25 06:16:39
Программа кодирования : mkvmerge v35.0.0 ('All The Love In The World') 32-bit
Библиотека кодирования : libebml v1.3.9 + libmatroska v1.5.2

Видео
Идентификатор : 1
Формат : AVC
Формат/Информация : Advanced Video Codec
Профиль формата : High@L4.1
Настройки формата : CABAC / 12 Ref Frames
Параметр CABAC формата : Да
Параметр RefFrames формата : 12 кадров
Идентификатор кодека : V_MPEG4/ISO/AVC
Продолжительность : 1 ч. 46 м.
Битрейт : 6421 Кбит/сек
Ширина : 1280 пикселей
Высота : 534 пикселя
Соотношение сторон : 2,40:1
Режим частоты кадров : Постоянный
Частота кадров : 23,976 (24000/1001) кадра/сек
Цветовое пространство : YUV
Субдискретизация насыщенности : 4:2:0
Битовая глубина : 8 бит
Тип развёртки : Прогрессивная
Бит/(Пиксели*Кадры) : 0.392
Размер потока : 4,79 Гбайт (67%)
Заголовок : Death Wish BDRip 720p [DopeHD]
Библиотека кодирования : x264 core 152 r2851kMod ba24899
Настройки программы : cabac=1 / ref=12 / deblock=1:-3:-3 / analyse=0x3:0x133 / me=umh / subme=10 / psy=1 / fade_compensate=0.00 / psy_rd=1.04:0.00 / mixed_ref=1 / me_range=32 / chroma_me=1 / trellis=2 / 8x8dct=1 / cqm=0 / deadzone=21,11 / fast_pskip=1 / chroma_qp_offset=-2 / threads=8 / lookahead_threads=2 / sliced_threads=0 / nr=0 / decimate=1 / interlaced=0 / bluray_compat=0 / constrained_intra=0 / bframes=10 / b_pyramid=2 / b_adapt=2 / b_bias=0 / direct=3 / weightb=1 / open_gop=0 / weightp=2 / keyint=250 / keyint_min=23 / scenecut=40 / intra_refresh=0 / rc_lookahead=150 / rc=crf / mbtree=0 / crf=14.9000 / qcomp=0.65 / qpmin=0 / qpmax=69 / qpstep=4 / vbv_maxrate=78125 / vbv_bufsize=62500 / crf_max=0.0 / nal_hrd=none / filler=0 / ip_ratio=1.30 / pb_ratio=1.20 / aq=3:0.80 / zones=829,2461,crf=14.6/17162,18139,crf=14.6/20131,21294,crf=14.6/50137,51521,crf=14.6/55032,55596,crf=14.6/58586,63599,crf=14.6/134915,139014
Язык : English
Default : Да
Forced : Нет

Аудио #1
Идентификатор : 2
Формат : AC-3
Формат/Информация : Audio Coding 3
Коммерческое название : Dolby Digital
Идентификатор кодека : A_AC3
Продолжительность : 1 ч. 46 м.
Вид битрейта : Постоянный
Битрейт : 448 Кбит/сек
Каналы : 6 каналов
ChannelLayout : L R C LFE Ls Rs
Частота : 48,0 КГц
Частота кадров : 31,250 кадров/сек (1536 SPF)
Битовая глубина : 16 бит
Метод сжатия : С потерями
Размер потока : 342 Мбайт (5%)
Заголовок : Dub [BD EUR]
Язык : Russian
Default : Да
Forced : Да

Аудио #2
Идентификатор : 3
Формат : AC-3
Формат/Информация : Audio Coding 3
Коммерческое название : Dolby Digital
Идентификатор кодека : A_AC3
Продолжительность : 1 ч. 46 м.
Вид битрейта : Постоянный
Битрейт : 384 Кбит/сек
Каналы : 6 каналов
ChannelLayout : L R C LFE Ls Rs
Частота : 48,0 КГц
Частота кадров : 31,250 кадров/сек (1536 SPF)
Битовая глубина : 16 бит
Метод сжатия : С потерями
Размер потока : 293 Мбайт (4%)
Заголовок : AVO [Андрей Гаврилов]
Язык : Russian
Default : Нет
Forced : Нет

Аудио #3
Идентификатор : 4
Формат : AC-3
Формат/Информация : Audio Coding 3
Коммерческое название : Dolby Digital
Идентификатор кодека : A_AC3
Продолжительность : 1 ч. 46 м.
Вид битрейта : Постоянный
Битрейт : 640 Кбит/сек
Каналы : 6 каналов
ChannelLayout : L R C LFE Ls Rs
Частота : 48,0 КГц
Частота кадров : 31,250 кадров/сек (1536 SPF)
Битовая глубина : 16 бит
Метод сжатия : С потерями
Размер потока : 489 Мбайт (7%)
Заголовок : VO [Михаил Чадов]
Язык : Russian
Default : Нет
Forced : Нет

Аудио #4
Идентификатор : 5
Формат : AC-3
Формат/Информация : Audio Coding 3
Коммерческое название : Dolby Digital
Идентификатор кодека : A_AC3
Продолжительность : 1 ч. 46 м.
Вид битрейта : Постоянный
Битрейт : 192 Кбит/сек
Каналы : 2 канала
ChannelLayout : L R
Частота : 48,0 КГц
Частота кадров : 31,250 кадров/сек (1536 SPF)
Битовая глубина : 16 бит
Метод сжатия : С потерями
Размер потока : 147 Мбайт (2%)
Заголовок : MVO [студия NLO]
Язык : Ukrainian
Default : Нет
Forced : Нет

Аудио #5
Идентификатор : 6
Формат : DTS
Формат/Информация : Digital Theater Systems
Идентификатор кодека : A_DTS
Продолжительность : 1 ч. 46 м.
Вид битрейта : Постоянный
Битрейт : 1509 Кбит/сек
Каналы : 6 каналов
ChannelLayout : C L R Ls Rs LFE
Частота : 48,0 КГц
Частота кадров : 93,750 кадра/сек (512 SPF)
Битовая глубина : 24 бит
Метод сжатия : С потерями
Размер потока : 1,12 Гбайт (16%)
Заголовок : Original
Язык : English
Default : Нет
Forced : Нет

Текст #1
Идентификатор : 7
Формат : UTF-8
Идентификатор кодека : S_TEXT/UTF8
Идентификатор кодека/Информация : UTF-8 Plain Text
Продолжительность : 1 ч. 39 м.
Битрейт : 99 бит/сек
ElementCount : 1313
Размер потока : 72,3 Кбайт (0%)
Заголовок : Full
Язык : Russian
Default : Нет
Forced : Нет

Текст #2
Идентификатор : 8
Формат : UTF-8
Идентификатор кодека : S_TEXT/UTF8
Идентификатор кодека/Информация : UTF-8 Plain Text
Продолжительность : 1 ч. 39 м.
Битрейт : 63 бит/сек
ElementCount : 1568
Размер потока : 46,6 Кбайт (0%)
Заголовок : Full
Язык : English
Default : Нет
Forced : Нет

Текст #3
Идентификатор : 9
Формат : UTF-8
Идентификатор кодека : S_TEXT/UTF8
Идентификатор кодека/Информация : UTF-8 Plain Text
Продолжительность : 1 ч. 43 м.
Битрейт : 69 бит/сек
ElementCount : 1755
Размер потока : 52,5 Кбайт (0%)
Заголовок : SDH
Язык : English
Default : Нет
Forced : Нет

Меню
00:00:00.000 : :Глава 01
00:10:00.000 : :Глава 02
00:20:00.000 : :Глава 03
00:30:00.000 : :Глава 04
00:40:00.000 : :Глава 05
00:50:00.000 : :Глава 06
01:00:00.000 : :Глава 07
01:10:00.000 : :Глава 08
01:20:00.000 : :Глава 09
01:30:00.000 : :Глава 10
01:40:00.000 : :Глава 11

pb.wtf



Скачать Жажда смерти через торрент https://img11.lostpic.net/2018/07/04/3f90239b6ca7206f3d28aea031aa4c7c.jpg Скачать фильм Жажда смерти через торрент бесплантно в хорошем качестве Описание: Пол Керси - хирург, привыкший вытаскивать людей с того света после криминальных разборок. Но после того, как его жена и дочь ... 10 10 9
Торрент: Зарегистрирован [2019-12-25 08:57] · скачан: 102 раз
Статус: √ проверено
Размер: 7.15 GB
Как cкачать? Как скачать Жажда смерти через торрент | qTorrent

% Раздел Тема Автор DL S | L
Фильмы 2018 [DVDrip, WEB-DLRip, HDrip] (DUB, MVO) [ 1.8 GB ] Жажда смерти / Death Wish [2018 BDRip-AVC] DUB [] - ExKinoRay Enigma2010 Скачать
8 | 0
Фильмы [HD 720p, 1080p] (Хороший звук DUB, MVO) [ 16.39 GB ] Жажда смерти / Death Wish [2018 BDRip 1080p] DUB [] +2xAVO+MVO [UKR] bober100 Скачать
1 | 0
Ultra HD (UHD: 2K, 4K, 8K) — видео сверхвысокой чёткости [ 56.86 GB ] Жажда смерти / Death Wish [2018 UHD BDRemux 2160p] [Dolby Vision] bober100 Скачать
1 | 0
Ultra HD (UHD: 2K, 4K, 8K) — видео сверхвысокой чёткости [ 59.66 GB ] Жажда смерти / Death Wish [2018 UHD Blu-ray 2160p] sheker187 Скачать
1 | 1
Фильмы (Blu-ray, BD-Remux, HDDVD) [ 27.87 GB ] Жажда смерти / Death Wish [2018 BD Remux 1080p] 2xAVO+ bober100 Скачать
1 | 0
Фильмы (HD 720p, 1080p) (48-60 fps) [ 12.5 GB ] Жажда смерти / Death Wish [2018 BDRip 1080p 60 fps] bober100 Скачать
1 | 0
Фильмы с авторской озвучкой [ 1.47 GB ] Жажда смерти / Death Wish [2018 BDRip-AVC] AVO [Чадов] - ExKinoRay Enigma2010 Скачать
4 | 0

28-11-2019 20:33  

Отключить всю рекламу на сайте

    Дорогой пользователь! Огромная просьба, поблагодарите релизера, оцените раздачу и оставьте свои комментарий, если Вы скачали Жажда смерти через торрент бесплатно! Внесите свою лепту в развитие PiratBit!
    Комментировать посты могут только пользователи прошедшие не сложную регистрацию
    Показать сообщения:    

    Жажда смерти через торрент
    Скачать бесплатно Жажда смерти
    Жажда смерти скачать торрент
    Жажда смерти смотреть онлайн
    Cкачать фильм Жажда смерти бесплатно
    Жажда смерти скачать торрент в хорошем качестве
    Жажда смерти смотреть онлайн бесплатно в хорошем качестве


    Вы не можете начинать темы
    Вы не можете отвечать на сообщения
    Вы не можете редактировать свои сообщения
    Вы не можете удалять свои сообщения
    Вы не можете голосовать в опросах
    Вы не можете прикреплять файлы к сообщениям
    Вы можете скачивать файлы