Ссылка на приватное зеркало нашего сайта всего за 1$. Внимание количество ограничено!!!

2 сезон

iTunes

1 сезон

1

iTunes

iTunes

iTunes

1 сезон

RePack

30

ИГРА 18+

pack

ВАЖНО

!!Акция!!

Alien_RageХит недели

RePack

MK11
pack

Забери бонус

RePack

jed

!!Акция!!

Alien_Rage

RePack

fifa19

RePack

Assassins Creed: Odyssey

RePack

NEED FOR SPEED™ PAYBACK

4 сезон

9 сезон

Бесстыжие 9 сезон

Все сериалы

все сериалы на PB.wtf

RePack

FAR CRY 5
  

Замок лгунов (Геннадий Сокольский) [1983 г., мультфильм, короткометражка, DVDRip-AVC] pb.wtf

Замок лгунов через торрент pb.wtf

Качают: 1 [ 0 KB/s ]
Размер: 342 MB | Добавлен: 8 мес. назад | Торрент скачан:8 раз
Скачать  

25-12-2019 12:59 Замок лгунов Скачать торрент  

Замок лгунов
Год выпуска: 1983
Страна: СССР
Жанр: мультфильм, короткометражка
Продолжительность: 00:16:01
Субтитры: нет

Режиссер: Геннадий Сокольский
Сценарий: Анатолий Петров, Геннадий Сокольский



В ролях: Текст читает: Евгений Стеблов

Описание: Фильм по мотивам одноимённой сказки литовской писательницы Витауте Жилинскайте. С героем фильма, любившем лгать, происходят невероятные приключения, благодаря которым он приходит к выводу, что лучше говорить правду. Музыкальное оформление — группы "Апельсин" и "Кукерпиллид".

Качество: DVDRip-AVC
Формат: MKV
Видео кодек: H.264
Аудио кодек: AC3
Видео: MPEG4 Video (H264), 720x568, 25fps, 1876 kbps
Аудио#1: Dolby AC3, 48000 Hz, 2ch, 192 kbps
Релиз от: mister.hats
скриншот  ,скриншот  ,скриншот  ,скриншот  ,

Общее
Уникальный идентификатор : 232363085179302256904313015080990992684 (0xAECF809B6E8E965AB7D1A533E6EEE92C)
Полное имя : E:\Замок лгунов (1983).mkv
Формат : Matroska
Версия формата : Version 2
Размер файла : 238 Мбайт
Продолжительность : 16 м. 2 с.
Общий поток : 2071 Кбит/сек
Дата кодирования : UTC 2019-12-25 12:20:32
Программа кодирования : mkvmerge v7.8.0 ('River Man') 32bit built on Apr 3 2015 12:11:22
Библиотека кодирования : libebml v1.3.1 + libmatroska v1.4.2

Видео
Идентификатор : 1
Формат : AVC
Формат/Информация : Advanced Video Codec
Профиль формата : Main@L4.1
Настройки формата : CABAC / 16 Ref Frames
Параметр CABAC формата : Да
Параметр RefFrames формата : 16 кадров
Идентификатор кодека : V_MPEG4/ISO/AVC
Продолжительность : 16 м. 2 с.
Битрейт : 1876 Кбит/сек
Ширина : 720 пикселей
Высота : 568 пикселей
Соотношение сторон : 4:3
Режим частоты кадров : Постоянный
Частота кадров : 25,000 кадров/сек
Цветовое пространство : YUV
Субдискретизация насыщенности : 4:2:0
Битовая глубина : 8 бит
Тип развёртки : Прогрессивная
Бит/(Пиксели*Кадры) : 0.183
Размер потока : 211 Мбайт (89%)
Библиотека кодирования : x264 core 146 r2538 121396c
Настройки программы : cabac=1 / ref=16 / deblock=1:-1:-1 / analyse=0x1:0x111 / me=umh / subme=11 / psy=1 / psy_rd=1.00:0.00 / mixed_ref=1 / me_range=32 / chroma_me=1 / trellis=2 / 8x8dct=0 / cqm=0 / deadzone=21,11 / fast_pskip=1 / chroma_qp_offset=-5 / threads=6 / lookahead_threads=1 / sliced_threads=0 / nr=0 / decimate=1 / interlaced=0 / bluray_compat=0 / constrained_intra=0 / bframes=16 / b_pyramid=2 / b_adapt=2 / b_bias=0 / direct=3 / weightb=1 / open_gop=1 / weightp=2 / keyint=240 / keyint_min=24 / scenecut=40 / intra_refresh=0 / rc_lookahead=50 / rc=2pass / mbtree=1 / bitrate=1876 / ratetol=1.0 / qcomp=0.60 / qpmin=0 / qpmax=69 / qpstep=4 / cplxblur=20.0 / qblur=0.5 / ip_ratio=1.40 / aq=1:1.00
Default : Да
Forced : Нет

Аудио
Идентификатор : 2
Формат : AC-3
Формат/Информация : Audio Coding 3
Коммерческое название : Dolby Digital
Идентификатор кодека : A_AC3
Продолжительность : 16 м. 2 с.
Вид битрейта : Постоянный
Битрейт : 192 Кбит/сек
Каналы : 2 канала
ChannelLayout : L R
Частота : 48,0 КГц
Частота кадров : 31,250 кадров/сек (1536 SPF)
Метод сжатия : С потерями
Размер потока : 22,0 Мбайт (9%)
ServiceKind/String : Complete Main
Default : Да
Forced : Нет

pb.wtf



Скачать Замок лгунов через торрент https://c.radikal.ru/c42/1912/b0/1638d8b3986f.png Скачать фильм Замок лгунов через торрент бесплантно в хорошем качестве Описание: Фильм по мотивам одноимённой сказки литовской писательницы Витауте Жилинскайте. С героем фильма, любившем лгать, происходят ... 10 10 1
Торрент: Зарегистрирован [2020-02-20 09:18] · скачан: 8 раз
Статус: √ проверено
Размер: 342 MB
Как cкачать? Как скачать Замок лгунов через торрент | qTorrent

% Раздел Тема Автор DL S | L
Наши мультфильмы [ 319 MB ] Замок лгунов [1983 мультфильм короткометражка DVDRip] DJERG Скачать
1 | 0


Последний раз редактировалось: ADVOKAT69 (2020-02-20 12:06), всего редактировалось 1 раз

28-11-2019 20:33  

Отключить всю рекламу на сайте

20-02-2020 10:38 Замок лгунов Скачать торрент  

Огонь мультик )))pb.wtf



    Дорогой пользователь! Огромная просьба, поблагодарите релизера, оцените раздачу и оставьте свои комментарий, если Вы скачали Замок лгунов через торрент бесплатно! Внесите свою лепту в развитие PiratBit!
    Комментировать посты могут только пользователи прошедшие не сложную регистрацию
    Показать сообщения:    

    Замок лгунов через торрент
    Скачать бесплатно Замок лгунов
    Замок лгунов скачать торрент
    Замок лгунов смотреть онлайн
    Cкачать фильм Замок лгунов бесплатно
    Замок лгунов скачать торрент в хорошем качестве
    Замок лгунов смотреть онлайн бесплатно в хорошем качестве


    Вы не можете начинать темы
    Вы не можете отвечать на сообщения
    Вы не можете редактировать свои сообщения
    Вы не можете удалять свои сообщения
    Вы не можете голосовать в опросах
    Вы не можете прикреплять файлы к сообщениям
    Вы можете скачивать файлы