2 сезон

iTunes

MVO

1

2 сезон

iTunes

iTunes

1 сезон

RePack

30

Новинка

ВАЖНО

ИГРА 18+

pack

RePack

MK11
pack

Легкие деньги

RePack

jed

RePack

fifa19

RePack

RDR2

RePack

NEED FOR SPEED™ PAYBACK

4 сезон

9 сезон

Бесстыжие 9 сезон

Все сериалы

все сериалы на PB.wtf

RePack

FAR CRY 5

Anonymous, добрый день, мы не успеваем собрать деньги на оплату серверов за декабрь и январь, помогите нам пожалуйста в это трудное время. В качестве благодарности мы отключим Вам всю рекламу на сайте (укажите свой ник в строку Ваше имя)!

×
  
Magnet ссылка

Затерянные в космосе / Lost in Space / Сезон: 1 / Серии: 1-10 из 10 (Тим Соутэм, Дебора Чоу, Стивен Серджик) [2018, Фантастика, UHD WEB-DLRip 2160p] DUB [Пифагор / Netflix] pb.wtf

Затерянные в космосе через торрент pb.wtf

Размер: 72.39 GB | Добавлен: 1 год назад | Торрент скачан:42 раза
Скачать  

26-12-2019 01:10 Затерянные в космосе Скачать торрент  

Затерянные в космосе / Lost in Space Год выпуска: 2018
Страна: США
Студия: Applebox Pictures, Clickety-Clack Productions, Legendary Television, Synthesis Entertainment
Жанр: Фантастика
Продолжительность: ~01:00:00
Перевод: Дублированный | | Пифагор по заказу Netflix
Субтитры: Русские (Forced, full), английские

Режиссёр: Тим Соутэм, Дебора Чоу, Стивен Серджик

В ролях: Мина Сандвол, Молли Паркер, Тоби Стивенс, Паркер Поузи, Макс Дженкинс, Тейлор Расселл, Игнасио Серричио, Амелия Берстин, Раза Джеффри, Аджай Парих-Фризе

Описание: 2046 год. Космический корабль теряется в космосе и терпит крушение на планете на расстоянии нескольких световых лет от планируемого места назначения. Его обитатели, семья Робинсонов, вынуждены приспособиться и выжить в новых условиях. Джон и Морин Робинсоны не слишком хорошо ладят друг с другом, но отчаянно пытаются не замечать своих проблем ради сохранения хотя бы подобия семьи, ведь у них такие талантливые дети! Джуди, Пенни и Уилл — замечательные, способные малыши, и они совсем не заслужили слушать бесконечные выяснения отношений между отцом и матерью. А им придется расти с этим, ведь все они оказались в открытом космосе на множество световых лет из-за ошибки в навигации.

rating

Качество: UHD WEB-DLRip 2160p
Формат: MKV

Видео: 3840x1920 at 23.976 fps, MPEG-H HEVC HDR Video, ~ 19300 kbps avg
Аудио #01: 48 kHz, E-AC3, 5.1, 640 Kbps | Дублированный | RUS |
Аудио #02: 48 kHz, AC3, 5.1, 640 Kbps | Дублированный | RUS |
Аудио #03: 48 kHz, E-AC3+Atmos, 5.1, 768 Kbps | Оригинал | ENG |
скриншот  скриншот  скриншот  скриншот  скриншот  

Общее
Уникальный идентификатор : 9753395188932404701043212387673500079 (0x7566F828604DC0F7204C1E7FE80E9AF)
Полное имя : C:\Lost.in.Space.2018.S01.WEB-DL.2160p.HEVC.HDR.seleZen\Lost.in.Space.2018.S01E01.WEB-DL.2160p.HEVC.HDR.seleZen.mkv
Формат : Matroska
Версия формата : Version 4
Размер файла : 9,41 Гбайт
Продолжительность : 1 ч. 3 м.
Общий поток : 21,1 Мбит/сек
Название фильма : Lost in Space (2018) S01E01 Impact from селезень
Дата кодирования : UTC 2019-12-25 23:15:25
Программа кодирования : mkvmerge v40.0.0 ('Old Town Road + Pony') 64-bit
Библиотека кодирования : libebml v1.3.9 + libmatroska v1.5.2

Видео
Идентификатор : 1
Формат : HEVC
Формат/Информация : High Efficiency Video Coding
Профиль формата : Main 10@L5@Main
HDR_Format/String : SMPTE ST 2086, HDR10 compatible
Идентификатор кодека : V_MPEGH/ISO/HEVC
Продолжительность : 1 ч. 3 м.
Битрейт : 19,3 Мбит/сек
Ширина : 3840 пикселей
Высота : 1920 пикселей
Соотношение сторон : 2,000
Режим частоты кадров : Постоянный
Частота кадров : 23,976 (24000/1001) кадра/сек
Цветовое пространство : YUV
Субдискретизация насыщенности : 4:2:0
Битовая глубина : 10 бит
Бит/(Пиксели*Кадры) : 0.106
Размер потока : 8,31 Гбайт (88%)
Библиотека кодирования : x265 2.7+337-54ff74d2b635:[Windows][GCC 7.3.0][64 bit] 10bit
Настройки программы : cpuid=1111039 / frame-threads=4 / numa-pools=28,0 / wpp / no-pmode / no-pme / no-psnr / no-ssim / log-level=2 / input-csp=1 / input-res=3840x1920 / interlace=0 / total-frames=0 / level-idc=0 / high-tier=1 / uhd-bd=0 / ref=5 / no-allow-non-conformance / repeat-headers / annexb / no-aud / no-hrd / info / hash=0 / no-temporal-layers / open-gop / min-keyint=23 / keyint=250 / gop-lookahead=0 / bframes=8 / b-adapt=2 / b-pyramid / bframe-bias=0 / rc-lookahead=40 / lookahead-slices=0 / scenecut=40 / radl=0 / no-intra-refresh / ctu=64 / min-cu-size=8 / rect / amp / max-tu-size=32 / tu-inter-depth=3 / tu-intra-depth=3 / limit-tu=4 / rdoq-level=2 / dynamic-rd=0.00 / no-ssim-rd / signhide / no-tskip / nr-intra=0 / nr-inter=0 / no-constrained-intra / no-strong-intra-smoothing / max-merge=4 / limit-refs=1 / limit-modes / me=3 / subme=4 / merange=57 / temporal-mvp / weightp / weightb / no-analyze-src-pics / deblock=0:0 / sao / no-sao-non-deblock / rd=6 / no-early-skip / rskip / no-fast-intra / no-tskip-fast / no-cu-lossless / b-intra / no-splitrd-skip / rdpenalty=0 / psy-rd=2.00 / psy-rdoq=1.00 / no-rd-refine / no-lossless / cbqpoffs=0 / crqpoffs=0 / rc=crf / crf=15.0 / qcomp=0.60 / qpstep=4 / stats-write=0 / stats-read=0 / ipratio=1.40 / pbratio=1.30 / aq-mode=1 / aq-strength=1.00 / cutree / zone-count=0 / no-strict-cbr / qg-size=32 / no-rc-grain / qpmax=69 / qpmin=0 / no-const-vbv / sar=0 / overscan=0 / videoformat=5 / range=0 / colorprim=9 / transfer=16 / colormatrix=9 / chromaloc=0 / display-window=0 / master-display=G(13250,34500)B(7500,3000)R(34000,16000)WP(15635,16450)L(10000000,1) / max-cll=4288,665 / min-luma=0 / max-luma=1023 / log2-max-poc-lsb=8 / vui-timing-info / vui-hrd-info / slices=1 / no-opt-qp-pps / no-opt-ref-list-length-pps / no-multi-pass-opt-rps / scenecut-bias=0.05 / no-opt-cu-delta-qp / no-aq-motion / hdr / hdr-opt / no-dhdr10-opt / no-idr-recovery-sei / analysis-reuse-level=5 / scale-factor=0 / refine-intra=0 / refine-inter=0 / refine-mv=0 / no-limit-sao / ctu-info=0 / no-lowpass-dct / refine-mv-type=0 / copy-pic=1 / max-ausize-factor=1.0 / no-dynamic-refine / no-single-sei
Язык : English
Default : Да
Forced : Нет
Цветовой диапазон : Limited
Основные цвета : BT.2020
Характеристики трансфера : PQ
Коэффициенты матрицы : BT.2020 non-constant
MasteringDisplay_ColorPrimaries : Display P3
MasteringDisplay_Luminance : min: 0.0001 cd/m2, max: 1000 cd/m2
MaxCLL : 4288 cd/m2
MaxFALL : 665 cd/m2

Аудио #1
Идентификатор : 2
Формат : E-AC-3
Формат/Информация : Enhanced AC-3
Коммерческое название : Dolby Digital Plus
Идентификатор кодека : A_EAC3
Продолжительность : 1 ч. 3 м.
Вид битрейта : Постоянный
Битрейт : 640 Кбит/сек
Каналы : 6 каналов
ChannelLayout : L R C LFE Ls Rs
Частота : 48,0 КГц
Частота кадров : 31,250 кадров/сек (1536 SPF)
Метод сжатия : С потерями
Размер потока : 292 Мбайт (3%)
Заголовок : Dub
Язык : Russian
ServiceKind/String : Complete Main
Default : Да
Forced : Да

Аудио #2
Идентификатор : 3
Формат : AC-3
Формат/Информация : Audio Coding 3
Коммерческое название : Dolby Digital
Идентификатор кодека : A_AC3
Продолжительность : 1 ч. 3 м.
Вид битрейта : Постоянный
Битрейт : 640 Кбит/сек
Каналы : 6 каналов
ChannelLayout : L R C LFE Ls Rs
Частота : 48,0 КГц
Частота кадров : 31,250 кадров/сек (1536 SPF)
Битовая глубина : 16 бит
Метод сжатия : С потерями
Размер потока : 292 Мбайт (3%)
Заголовок : Dub
Язык : Russian
ServiceKind/String : Complete Main
Default : Нет
Forced : Нет

Аудио #3
Идентификатор : 4
Формат : E-AC-3 JOC
Формат/Информация : Enhanced AC-3 with Joint Object Coding
Коммерческое название : Dolby Digital Plus with Dolby Atmos
Идентификатор кодека : A_EAC3
Продолжительность : 1 ч. 3 м.
Вид битрейта : Постоянный
Битрейт : 768 Кбит/сек
Каналы : 6 каналов
ChannelLayout : L R C LFE Ls Rs
Частота : 48,0 КГц
Частота кадров : 31,250 кадров/сек (1536 SPF)
Метод сжатия : С потерями
Размер потока : 351 Мбайт (4%)
Заголовок : Original
Язык : English
ServiceKind/String : Complete Main
Default : Нет
Forced : Нет
ComplexityIndex : 16
NumberOfDynamicObjects : 15
BedChannelCount/String : 1 канал
BedChannelConfiguration : LFE

Текст #1
Идентификатор : 5
Формат : UTF-8
Идентификатор кодека : S_TEXT/UTF8
Идентификатор кодека/Информация : UTF-8 Plain Text
Заголовок : Forced
Язык : Russian
Default : Да
Forced : Да

Текст #2
Идентификатор : 6
Формат : UTF-8
Идентификатор кодека : S_TEXT/UTF8
Идентификатор кодека/Информация : UTF-8 Plain Text
Заголовок : Full
Язык : Russian
Default : Нет
Forced : Нет

Текст #3
Идентификатор : 7
Формат : UTF-8
Идентификатор кодека : S_TEXT/UTF8
Идентификатор кодека/Информация : UTF-8 Plain Text
Язык : English
Default : Нет
Forced : Нет

pb.wtf



Скачать Затерянные в космосе через торрент https://funkyimg.com/i/2YKMV.jpg Скачать фильм Затерянные в космосе через торрент бесплантно в хорошем качестве Описание: 2046 год. Космический корабль теряется в космосе и терпит крушение на планете на расстоянии нескольких световых лет от ... 7.8 10 4
Торрент: Зарегистрирован [2019-12-26 01:10] · скачан: 42 раз
Статус: √ проверено
Размер: 72.39 GB
Как cкачать? Как скачать Затерянные в космосе через торрент | UTorrent

% Раздел Тема Автор DL S | L
Зарубежные сериалы [ 7.4 GB ] Затерянные в космосе / Lost in Space / Сезон: 2 / Серии: 1-10 из 10 [2019 WEB-DLRip] MVO [TVShows] bober100 Скачать
3 | 0
Зарубежные сериалы [ 57.49 GB ] Затерянные в космосе / Lost in Space / Сезон: 2 / Серии: 1-10 из 10 [2019 WEB-DL 1080p] MVO [TVShows] bober100 Скачать
1 | 0
Зарубежные сериалы [ 66.9 GB ] Затерянные в космосе / Lost in Space / Сезон: 2 / Серии: 1-10 из 10 [2019 UHD WEB-DLRip 2160p] DUB [Пифагор / Netflix] bober100 Скачать
1 | 0
Зарубежные сериалы [ 28.62 GB ] Затерянные в космосе / Lost in Space / Сезон: 2 / Серии: 1-10 из 10 [2019 WEBRip 720p] + [MVO] killermax2013 Скачать
1 | 0
Зарубежные сериалы [ 27.74 GB ] Затерянные в космосе / Lost in Space / Сезон: 2 / Серии: 1-10 из 10 [2019 WEB-DL 720p] MVO [LostFilm] bober100 Скачать
1 | 0
Зарубежные сериалы [ 6.33 GB ] Затерянные в космосе / Lost in Space / Сезон: 2 / Серии: 1-10 из 10 [2019 WEB-DLRip] MVO [LostFilm] bober100 Скачать
1 | 0
Зарубежные сериалы [ 16.79 GB ] Затерянные в космосе / Lost in Space / Сезон: 2 / Серии: 1-10 из 10 [2019 WEB-DL 1080p] DUB [Пифагор / Netflix] bober100 Скачать
4 | 0

28-11-2019 20:33  

Отключить всю рекламу на сайте

26-12-2019 10:44 Затерянные в космосе Скачать торрент  

Я и первую не досмотрел муть голимая!pb.wtf



29-12-2019 12:46 Затерянные в космосе Скачать торрент  

sidxxl77 писал(а):

Я и первую не досмотрел муть голимая!

Просто у тебя мозгов не хватает, поэтому и муть в твоей голове!pb.wtf



    Дорогой пользователь! Огромная просьба, поблагодарите релизера, оцените раздачу и оставьте свои комментарий, если Вы скачали Затерянные в космосе через торрент бесплатно! Внесите свою лепту в развитие PiratBit!
    Комментировать посты могут только пользователи прошедшие не сложную регистрацию
    Показать сообщения:    

    Затерянные в космосе через торрент
    Скачать бесплатно Затерянные в космосе
    Затерянные в космосе скачать торрент
    Затерянные в космосе смотреть онлайн
    Cкачать фильм Затерянные в космосе бесплатно
    Затерянные в космосе скачать торрент в хорошем качестве
    Затерянные в космосе смотреть онлайн бесплатно в хорошем качестве


    Вы не можете начинать темы
    Вы не можете отвечать на сообщения
    Вы не можете редактировать свои сообщения
    Вы не можете удалять свои сообщения
    Вы не можете голосовать в опросах
    Вы не можете прикреплять файлы к сообщениям
    Вы можете скачивать файлы