1 сезон

1 сезон

iTunes

1

КиноПоиск HD

Кинопоиск HD

iTunes

13

1 сезон

RePack

30

Новинка

ВАЖНО

ИГРА 18+

pack

RePack

MK11
pack

Легкие деньги

RePack

jed

RePack

fifa19

RePack

RDR2

RePack

NEED FOR SPEED™ PAYBACK

4 сезон

9 сезон

Бесстыжие 9 сезон

Все сериалы

все сериалы на PB.wtf

RePack

FAR CRY 5
  
Magnet ссылка

3000 миль до Грейслэнда / 3000 Miles to Graceland (Дэмиен Лихтенштайн) [2001, боевик, триллер, комедия, криминал, BDRip (AVC) by msltel] MVO, DVO, AVO pb.wtf

3000 миль до Грейслэнда через торрент pb.wtf

Размер: 3.33 GB | Добавлен: 1 год 3 мес. назад | Торрент скачан:9 раз
Скачать  

26-12-2019 08:44 3000 миль до Грейслэнда Скачать торрент  

Название: 3000 миль до Грейслэнда
Оригинальное название: 3000 Miles to Graceland
Год выпуска: 2001
Страна: США
Жанр: боевик, триллер, комедия, криминал
Продолжительность: 02:04:41
Перевод: профессиональный многоголосый, профессиональный двухголосый, авторский

Режиссер: Дэмиен Лихтенштайн
В ролях: Курт Расселл, Кевин Костнер, Кортни Кокс, Кристиан Слэйтер, Кевин Поллак, Дэвид Аркетт, Джон Ловиц, Хоуи Лонг, Томас Хейден Чёрч, Боким Вудбайн, Айс-Ти, Дэвид Кэй, Луис Ломбарди, Шон Майкл Ховард, Майкл Копса, Дэйзи МакКрэкин, Шаррон Ли, Пол Анка, Эрик Джеймс, Тимоти Мисни, Кимберли Хоторн, Крэйг Марч, Род Лэйк, Норма Кэмпбелл, Джанни Руссо, Джон Касино, Хэмилтон фон Уоттс, Лоррэйн Коте, Дэвид Микер, Кеннет Андерсон, Морган Х. Маргулис, Обри Джордан, Луис Моро, Росс Хайнс, Кристин Шателейн

О фильме: Майкл только что вышел из тюрьмы, но долго сидеть без работы ему не придется — его тут же подбирает на «большое дело» его знакомый Мерфи. План его прост и одновременно нагл — пробравшись на слет подражателей Элвиса Пресли под видом его имитаторов, ограбить одно из самых больших казино в Лас Вегасе. Всё проходит довольно гладко, однако, как водится, проблемы начинаются, когда герои начинают делить награбленное. В четко очерченный круг исполнителей неожиданно влезает одинокая мать с сыном, с которыми Майкл познакомился ещё до налета, а на закуску выясняется, что Мерфи, вообще-то, не намерен делиться ни с кем, и своих бывших соратников он устраняет весьма традиционным способом: пуля в лоб - и все дела...



Качество: BDRip (AVC)
Формат: MKV
Видео: MPEG-4 AVC, 2280 Kбит/с, 1024x432
Аудио 1: русский, AC3, 448 kbps, 5 ch, 48 kHz [закадровый двухголосый, R5 Premier]
Аудио 2: русский, AC3, 192 kbps, 2 ch, 48 kHz [закадровый многоголосый, OPT]
Аудио 3: русский, AC3, 448 kbps, 6 ch, 48 kHz [авторский, Андрей Гаврилов]
Аудио 4: английский, AC3, 448 kbps, 6 ch, 48 kHz [оригинал]
Субтитры 1: русские (для ОРТ)
Субтитры 2: русские
Субтитры 3: английские
Главы/чаптеры
Общее
Уникальный идентификатор : 225640559961894262851367903336152977857 (0xA9C0CA862D87DE048F9130E6BE4051C1)
Полное имя : D:\Video\3000 миль до Грейслэнда.2001.BDRip (AVC) by msltel.mkv
Формат : Matroska
Версия формата : Version 4
Размер файла : 3,33 Гбайт
Продолжительность : 2 ч. 4 м.
Общий поток : 3818 Кбит/сек
Название фильма : Rip by msltel
Дата кодирования : UTC 2019-12-26 01:59:43
Программа кодирования : mkvmerge v8.2.0 ('World of Adventure') 64bit
Библиотека кодирования : libebml v1.3.1 + libmatroska v1.4.2

Видео
Идентификатор : 1
Формат : AVC
Формат/Информация : Advanced Video Codec
Профиль формата : High@L4.1
Настройки формата : CABAC / 9 Ref Frames
Параметр CABAC формата : Да
Параметр RefFrames формата : 9 кадров
Идентификатор кодека : V_MPEG4/ISO/AVC
Продолжительность : 2 ч. 4 м.
Битрейт : 2280 Кбит/сек
Ширина : 1024 пикселя
Высота : 432 пикселя
Соотношение сторон : 2,40:1
Режим частоты кадров : Постоянный
Частота кадров : 23,976 (24000/1001) кадра/сек
Цветовое пространство : YUV
Субдискретизация насыщенности : 4:2:0
Битовая глубина : 8 бит
Тип развёртки : Прогрессивная
Бит/(Пиксели*Кадры) : 0.215
Размер потока : 1,99 Гбайт (60%)
Библиотека кодирования : x264 core 157 r2935 545de2f
Настройки программы : cabac=1 / ref=9 / deblock=1:-2:-2 / analyse=0x3:0x113 / me=umh / subme=11 / psy=1 / psy_rd=1.00:0.15 / mixed_ref=1 / me_range=32 / chroma_me=1 / trellis=2 / 8x8dct=1 / cqm=0 / deadzone=21,11 / fast_pskip=0 / chroma_qp_offset=-3 / threads=6 / lookahead_threads=1 / sliced_threads=0 / nr=0 / decimate=1 / interlaced=0 / bluray_compat=0 / constrained_intra=0 / bframes=9 / b_pyramid=2 / b_adapt=2 / b_bias=0 / direct=1 / weightb=1 / open_gop=0 / weightp=2 / keyint=230 / keyint_min=23 / scenecut=40 / intra_refresh=0 / rc_lookahead=40 / rc=crf / mbtree=0 / crf=20.2 / qcomp=0.60 / qpmin=0 / qpmax=69 / qpstep=4 / vbv_maxrate=50000 / vbv_bufsize=62500 / crf_max=0.0 / nal_hrd=none / filler=0 / ip_ratio=1.40 / pb_ratio=1.30 / aq=1:1.00
Язык : English
Default : Да
Forced : Нет

Аудио #1
Идентификатор : 2
Формат : AC-3
Формат/Информация : Audio Coding 3
Коммерческое название : Dolby Digital
Идентификатор кодека : A_AC3
Продолжительность : 2 ч. 4 м.
Вид битрейта : Постоянный
Битрейт : 448 Кбит/сек
Каналы : 5 каналов
ChannelLayout : L R C Ls Rs
Частота : 48,0 КГц
Частота кадров : 31,250 кадров/сек (1536 SPF)
Метод сжатия : С потерями
Размер потока : 400 Мбайт (12%)
Заголовок : DVO R5 Premier
Язык : Russian
ServiceKind/String : Complete Main
Default : Да
Forced : Нет

Аудио #2
Идентификатор : 3
Формат : AC-3
Формат/Информация : Audio Coding 3
Коммерческое название : Dolby Digital
Идентификатор кодека : A_AC3
Продолжительность : 2 ч. 4 м.
Вид битрейта : Постоянный
Битрейт : 192 Кбит/сек
Каналы : 2 канала
ChannelLayout : L R
Частота : 48,0 КГц
Частота кадров : 31,250 кадров/сек (1536 SPF)
Метод сжатия : С потерями
Размер потока : 171 Мбайт (5%)
Заголовок : DVO OPT
Язык : Russian
ServiceKind/String : Complete Main
Default : Нет
Forced : Нет

Аудио #3
Идентификатор : 4
Формат : AC-3
Формат/Информация : Audio Coding 3
Коммерческое название : Dolby Digital
Идентификатор кодека : A_AC3
Продолжительность : 2 ч. 4 м.
Вид битрейта : Постоянный
Битрейт : 448 Кбит/сек
Каналы : 6 каналов
ChannelLayout : L R C LFE Ls Rs
Частота : 48,0 КГц
Частота кадров : 31,250 кадров/сек (1536 SPF)
Метод сжатия : С потерями
Размер потока : 400 Мбайт (12%)
Заголовок : Андрей Гаврилов
Язык : Russian
ServiceKind/String : Complete Main
Default : Нет
Forced : Нет

Аудио #4
Идентификатор : 5
Формат : AC-3
Формат/Информация : Audio Coding 3
Коммерческое название : Dolby Digital
Идентификатор кодека : A_AC3
Продолжительность : 2 ч. 4 м.
Вид битрейта : Постоянный
Битрейт : 448 Кбит/сек
Каналы : 6 каналов
ChannelLayout : L R C LFE Ls Rs
Частота : 48,0 КГц
Частота кадров : 31,250 кадров/сек (1536 SPF)
Метод сжатия : С потерями
Размер потока : 400 Мбайт (12%)
Заголовок : original
Язык : English
ServiceKind/String : Complete Main
Default : Нет
Forced : Нет

Текст #1
Идентификатор : 6
Формат : UTF-8
Идентификатор кодека : S_TEXT/UTF8
Идентификатор кодека/Информация : UTF-8 Plain Text
Продолжительность : 1 ч. 54 м.
Битрейт : 3 бит/сек
ElementCount : 60
Размер потока : 3,28 Кбайт (0%)
Заголовок : русские для ОРТ
Язык : Russian
Default : Нет
Forced : Нет

Текст #2
Идентификатор : 7
Формат : UTF-8
Идентификатор кодека : S_TEXT/UTF8
Идентификатор кодека/Информация : UTF-8 Plain Text
Продолжительность : 2 ч. 0 м.
Битрейт : 71 бит/сек
ElementCount : 1411
Размер потока : 62,7 Кбайт (0%)
Заголовок : русские
Язык : Russian
Default : Нет
Forced : Нет

Текст #3
Идентификатор : 8
Формат : UTF-8
Идентификатор кодека : S_TEXT/UTF8
Идентификатор кодека/Информация : UTF-8 Plain Text
Продолжительность : 2 ч. 1 м.
Битрейт : 45 бит/сек
ElementCount : 1332
Размер потока : 40,9 Кбайт (0%)
Заголовок : английские
Язык : English
Default : Нет
Forced : Нет

Меню
00:00:00.000 : en:Scorpion Clash (Credits, *It's Gonna Kill Me*)
00:02:44.247 : en:Cheap Date
00:06:22.089 : en:"Ready to Play?"
00:09:55.761 : en:The King's Never Down
00:13:14.126 : en:Money Hunt
00:16:02.502 : en:Elvises Galore (*Trouble*)
00:19:44.307 : en:The Robbery
00:23:52.188 : en:The Shootout (*Come In Hard*)
00:29:06.994 : en:Left the Building
00:33:05.983 : en:Close Shave
00:35:10.607 : en:New Rules
00:40:31.303 : en:Body Disposal
00:42:21.246 : en:$100,000 of Silence
00:46:51.307 : en:On Their Way
00:50:29.317 : en:About Murph (*Loaded Gun / In 2 Deep*)
00:55:54.851 : en:Nasty Habits
00:57:06.464 : en:Passenger Swap (*Bad to the Bone*)
00:59:40.993 : en:Getaway With Candles (*Every Little Thing*)
01:04:07.885 : en:Quick Draw
01:07:22.579 : en:Keeping Things Honest
01:11:58.438 : en:We're in Business
01:16:08.146 : en:Murph's Handiwork
01:19:00.818 : en:Two Stolen Cars
01:22:21.603 : en:Behind Bars in Boise
01:26:21.008 : en:Get Out of Jail Free
01:28:22.880 : en:Lies and Goodbyes
01:32:05.602 : en:Instant Wombat
01:35:16.001 : en:Road Rage (*Angel Dust*)
01:41:07.811 : en:In Murph's Hands
01:44:54.329 : en:Tough Guys Gotta Eat
01:47:27.815 : en:Faceoff
01:50:53.563 : en:Bullets Taken
01:54:03.127 : en:Recognize Me Now? (*My Way*)
01:58:42.197 : en:Three on a Boat (*Follow Me*)
02:01:08.302 : en:End Credits (*Such a Night*)
pb.wtf



Скачать 3000 миль до Грейслэнда через торрент https://d.radikal.ru/d41/1912/07/9abe0a9895d0.jpg Скачать фильм 3000 миль до Грейслэнда через торрент бесплантно в хорошем качестве О фильме: Майкл только что вышел из тюрьмы, но долго сидеть без работы ему не придется — его тут же подбирает на «большое дело» его ... 5 10 1
Торрент: Зарегистрирован [2019-12-26 08:44] · скачан: 9 раз
Статус: √ проверено
Размер: 3.33 GB
Как cкачать? Как скачать 3000 миль до Грейслэнда через торрент | UTorrent

% Раздел Тема Автор DL S | L
Фильмы [HD 720p, 1080p] (Хороший звук DUB, MVO) [ 13.56 GB ] 3000 миль до Грейслэнда / 3000 Miles to Graceland [2001 BDRip 1080p by msltel] MVO DVO 4 x AVO msltel Скачать
1 | 0
Фильмы [HD 720p, 1080p] (Хороший звук DUB, MVO) [ 5.8 GB ] 3000 миль до Грейслэнда / 3000 Miles to Graceland [2001 BDRip 720p by msltel] MVO DVO 4 x AVO msltel Скачать
1 | 0

28-11-2019 20:33  

Отключить всю рекламу на сайте

    Дорогой пользователь! Огромная просьба, поблагодарите релизера, оцените раздачу и оставьте свои комментарий, если Вы скачали 3000 миль до Грейслэнда через торрент бесплатно! Внесите свою лепту в развитие PiratBit!
    Комментировать посты могут только пользователи прошедшие не сложную регистрацию
    Показать сообщения:    

    3000 миль до Грейслэнда через торрент
    Скачать бесплатно 3000 миль до Грейслэнда
    3000 миль до Грейслэнда скачать торрент
    3000 миль до Грейслэнда смотреть онлайн
    Cкачать фильм 3000 миль до Грейслэнда бесплатно
    3000 миль до Грейслэнда скачать торрент в хорошем качестве
    3000 миль до Грейслэнда смотреть онлайн бесплатно в хорошем качестве


    Вы не можете начинать темы
    Вы не можете отвечать на сообщения
    Вы не можете редактировать свои сообщения
    Вы не можете удалять свои сообщения
    Вы не можете голосовать в опросах
    Вы не можете прикреплять файлы к сообщениям
    Вы можете скачивать файлы