Ссылка на приватное зеркало нашего сайта всего за 1$. Внимание количество ограничено!!!

2 сезон

iTunes

1 сезон

1

2 сезон

2 сезон

iTunes

1 сезон

RePack

30

Ultimate

ВАЖНО

ИГРА 18+

pack

RePack

MK11
pack

Забери бонус

RePack

jed

!!Акция!!

Alien_Rage

RePack

fifa19

RePack

Assassins Creed: Odyssey

RePack

NEED FOR SPEED™ PAYBACK

4 сезон

9 сезон

Бесстыжие 9 сезон

Все сериалы

все сериалы на PB.wtf

RePack

FAR CRY 5
  

Корпоративные животные / Corporate Animals (Патрик Брайс) [2019, ужасы, комедия, WEB-DL 720p] DUB [iTunes] pb.wtf

Корпоративные животные через торрент pb.wtf

Размер: 2.64 GB | Добавлен: 11 мес. назад | Торрент скачан:148 раз
Скачать  

26-12-2019 15:16 Корпоративные животные Скачать торрент  

Корпоративные животные / Corporate Animals
Год выпуска: 2019
Страна: США
Жанр: ужасы, комедия
Продолжительность: 01:25:53
Перевод: Дублированный | iTunes
Субтитры: Английские

Режиссер: Патрик Брайс

rating

В ролях: Деми Мур, Эд Хелмс, Джессика Уильямс, Каран Сони, Исайя Уитлок мл., Марта Келли, Дэн Баккедаль, Кэлам Уорси, Дженнифер Ким, Назим Педрад

Описание: Эгоистичная Люси руководит крупнейшей в Америке компанией по производству съедобной посуды. На тимбилдинге, который она организовывает для своих сотрудников, происходит несчастный случай: весь коллектив оказывается в ловушке под землей. В борьбе за выживание люди начинают вести себя как дикие животные.

Качество: WEB-DL 720p
Формат: MKV

Видео: MPEG-4 AVC, 4026 Кбит/с, 1280x536, 23.976 fps
Аудио: 48 kHz, AC3 Dolby Digital, 3/2 (L,C,R,l,r) + LFE ch, ~384 kbps
скриншот  скриншот  скриншот  скриншот  

General
Unique ID: 236441208823270965433858739346036207783 (0xB1E0EBA061CB9BE6AF72175CA267B0A7)
Complete name: Korporativnyie.zhivotnyie.2019.WEB-DL.720p.ELEKTRI4KA.UNIONGANG.mkv
Format: Matroska
Format version: Version 4
File size: 2.64 GiB
Duration: 1 h 25 min
Overall bit rate: 4 412 kb/s
Encoded date: UTC 2019-12-25 22:42:01
Writing application: mkvmerge v8.3.0 ('Over the Horizon') 64bit
Writing library: libebml v1.3.1 + libmatroska v1.4.2

Video
ID: 1
Format: AVC
Format/Info: Advanced Video Codec
Format profile: Main@L3.1
Format settings: 2 Ref Frames
Format settings, CABAC: No
Format settings, Reference frames: 2 frames
Codec ID: V_MPEG4/ISO/AVC
Duration: 1 h 25 min
Bit rate: 4 026 kb/s
Width: 1 280 pixels
Height: 536 pixels
Display aspect ratio: 2.40:1
Frame rate mode: Constant
Frame rate: 24.000 FPS
Color space: YUV
Chroma subsampling: 4:2:0
Bit depth: 8 bits
Scan type: Progressive
Bits/(Pixel*Frame): 0.245
Stream size: 2.41 GiB (91%)
Title: itunes (ELEKTRI4KA.UNIONGANG)
Language: English
Default: Yes
Forced: No
Color range: Limited
Color primaries: BT.709
Transfer characteristics: BT.709
Matrix coefficients: BT.709

Audio
ID: 2
Format: AC-3
Format/Info: Audio Coding 3
Commercial name: Dolby Digital
Codec ID: A_AC3
Duration: 1 h 25 min
Bit rate mode: Constant
Bit rate: 384 kb/s
Channel(s): 6 channels
Channel layout: L R C LFE Ls Rs
Sampling rate: 48.0 kHz
Frame rate: 31.250 FPS (1536 SPF)
Compression mode: Lossy
Stream size: 235 MiB (9%)
Title: itunes (ELEKTRI4KA.UNIONGANG)
Language: Russian
Service kind: Complete Main
Default: Yes
Forced: No

Menu
00:00:00.000: en:Глава 1
00:08:41.082: en:Глава 2
00:15:11.289: en:Глава 3
00:23:06.872: en:Глава 4
00:29:59.455: en:Глава 5
00:35:46.080: en:Глава 6
00:45:21.538: en:Глава 7
00:51:59.454: en:Глава 8
01:00:28.787: en:Глава 9
01:07:52.203: en:Глава 10
01:16:21.494: en:Глава 11

pb.wtf



Скачать Корпоративные животные через торрент https://i6.imageban.ru/out/2019/12/26/0b5ab108f6778bfed23225fd442e6df3.png Скачать фильм Корпоративные животные через торрент бесплантно в хорошем качестве Описание: Эгоистичная Люси руководит крупнейшей в Америке компанией по производству съедобной посуды. На тимбилдинге, который она ... 8 10 9
Info! Золотая раздача, скачанное не засчитывается.
Торрент: Зарегистрирован [2019-12-26 15:16] · скачан: 148 раз
Статус: √ проверено
Размер: 2.64 GB
Как cкачать? Как скачать Корпоративные животные через торрент | qTorrent

% Раздел Тема Автор DL S | L
Фильмы 2019-2020 [DVDrip, WEB-DLRip, HDrip] (DUB, MVO) [ 1.42 GB ] Корпоративные животные / Corporate Animals [2019 BDRip] - Twi7ter Скачать
3 | 0
Фильмы [HD 720p, 1080p] (Хороший звук DUB, MVO) [ 6.61 GB ] Корпоративные животные / Corporate Animals [2019 BDRip 1080p] bober100 Скачать
1 | 0
Фильмы 2019-2020 [DVDrip, WEB-DLRip, HDrip] (DUB, MVO) [ 1.42 GB ] Корпоративные животные / Corporate Animals [2019 BDRip] bober100 Скачать
1 | 0
Фильмы (WEB-DL 720p, 1080p) [ 3.89 GB ] Корпоративные животные / Corporate Animals [2019 WEB-DL 1080p] [AMAZON Version] bober100 Скачать
1 | 0

28-11-2019 20:33  

Отключить всю рекламу на сайте

    Дорогой пользователь! Огромная просьба, поблагодарите релизера, оцените раздачу и оставьте свои комментарий, если Вы скачали Корпоративные животные через торрент бесплатно! Внесите свою лепту в развитие PiratBit!
    Комментировать посты могут только пользователи прошедшие не сложную регистрацию
    Показать сообщения:    

    Корпоративные животные через торрент
    Скачать бесплатно Корпоративные животные
    Корпоративные животные скачать торрент
    Корпоративные животные смотреть онлайн
    Cкачать фильм Корпоративные животные бесплатно
    Корпоративные животные скачать торрент в хорошем качестве
    Корпоративные животные смотреть онлайн бесплатно в хорошем качестве


    Вы не можете начинать темы
    Вы не можете отвечать на сообщения
    Вы не можете редактировать свои сообщения
    Вы не можете удалять свои сообщения
    Вы не можете голосовать в опросах
    Вы не можете прикреплять файлы к сообщениям
    Вы можете скачивать файлы