Ссылка на приватное зеркало нашего сайта всего за 1$. Внимание количество ограничено!!!

2 сезон

iTunes

1 сезон

1

iTunes

iTunes

iTunes

1 сезон

RePack

30

ИГРА 18+

pack

ВАЖНО

!!Акция!!

Alien_RageХит недели

RePack

MK11
pack

Забери бонус

RePack

jed

!!Акция!!

Alien_Rage

RePack

fifa19

RePack

Assassins Creed: Odyssey

RePack

NEED FOR SPEED™ PAYBACK

4 сезон

9 сезон

Бесстыжие 9 сезон

Все сериалы

все сериалы на PB.wtf

RePack

FAR CRY 5
  

Тайны следствия / Сезон: 19 / Серии: 1-24 из 24 (Ольга Кандидатова) [2019, Детектив, драма, криминал, HDTVRip] pb.wtf

Тайны следствия через торрент pb.wtf

Размер: 16.27 GB | Добавлен: 9 мес. назад | Торрент скачан:25 раз
Скачать  

28-12-2019 00:45 Тайны следствия Скачать торрент  

Тайны следствия Год выпуска: 2019
Страна: Россия
Жанр: Детектив, драма, криминал
Продолжительность: ~ 00:50:00 серия
Перевод: Не требуется
Субтитры: отсутствуют

Режиссер: Ольга Кандидатова

rating

В ролях: Анна Ковальчук, Вячеслав Захаров, Игорь Николаев, Александр Новиков (III), Антон Ксенев, Давид Бродский, Андрей Шарков, Степан Пивкин, Татьяна Левина, Анастасия Ступина, Светлана Щедрина, Злата Ильченко, Варвара Александрова, Владимир Постников, Владимир Колганов, Андрей Булатов, Александр Андреев, Александр Конев

Описание: Строгая и обаятельная Мария Сергеевна Швецова продолжает работать в Следственном комитете. После расставания с хирургом Солнцевым она снова свободна и теперь полностью погружена в работу. А вот в жизни Курочкина и Кораблева большие перемены - их повышают в должности. Кораблев теперь становится начальником убойного отдела, переезжает в отдельный кабинет. Для усиления отдела в помощь Курочкину решено взять нового сотрудника - Олега Платонова, профессионала своего дела со сложным характером и неоднозначной репутацией.

Качество: HDTVRip
Формат: AVI

Видео: XviD, ~ 1600 Кбит/с, 720x400
Аудио: 48.0 kHz, AC3 Dolby Digital, 2/0 (L,R) ch, ~ 192 kbps
скриншот  скриншот  скриншот  скриншот  

General
Complete name : H:\fiiles x\Тайны следствия .S19.2019.HDTVRip. Files-x\05. Тайны следствия .S19.2019.HDTVRip. Files-x.avi
Format : AVI
Format/Info : Audio Video Interleave
File size : 693 MiB
Duration : 50mn 59s
Overall bit rate : 1 902 Kbps
Writing application : VirtualDubMod 1.5.10.3 | www.virtualdub-fr.org || (build 2550/release)
Writing library : VirtualDubMod build 2550/release

Video
ID : 0
Format : MPEG-4 Visual
Format profile : Advanced Simple@L5
Format settings, BVOP : 2
Format settings, QPel : No
Format settings, GMC : No warppoints
Format settings, Matrix : Custom
Codec ID : XVID
Codec ID/Hint : XviD
Duration : 50mn 59s
Bit rate : 1 700 Kbps
Width : 720 pixels
Height : 400 pixels
Display aspect ratio : 16:9
Frame rate : 25.000 fps
Color space : YUV
Chroma subsampling : 4:2:0
Bit depth : 8 bits
Scan type : Progressive
Compression mode : Lossy
Bits/(Pixel*Frame) : 0.236
Stream size : 620 MiB (89%)
Writing library : XviD 73

Audio
ID : 1
Format : AC-3
Format/Info : Audio Coding 3
Mode extension : CM (complete main)
Codec ID : 2000
Duration : 50mn 59s
Bit rate mode : Constant
Bit rate : 192 Kbps
Channel(s) : 2 channels
Channel positions : Front: L R
Sampling rate : 48.0 KHz
Bit depth : 16 bits
Compression mode : Lossy
Stream size : 70.0 MiB (10%)
Alignment : Split accross interleaves
Interleave, duration : 40 ms (1.00 video frame)
Interleave, preload duration : 500 ms

pb.wtf



Скачать Тайны следствия через торрент https://i111.fastpic.ru/big/2019/1209/8a/f38909910345960ef84da47cb5eb208a.jpg Скачать фильм Тайны следствия через торрент бесплантно в хорошем качестве Описание: Строгая и обаятельная Мария Сергеевна Швецова продолжает работать в Следственном комитете. После расставания с хирургом Солнцевым ... 10 10 3
Торрент: Зарегистрирован [2019-12-28 00:45] · скачан: 25 раз
Статус: √ проверено
Размер: 16.27 GB
Как cкачать? Как скачать Тайны следствия через торрент | qTorrent

% Раздел Тема Автор DL S | L
Наши сериалы [ 14.56 GB ] Тайны следствия / Сезон: 19 / Серии: 1-24 из 24 [2019 SATRip-AVC] aleksan55 Скачать
1 | 0
Наши сериалы [ 31.61 GB ] Тайны следствия / Сезон: 19 / Серии: 1-24 из 24 [2019 HDTVRip 720p] bober100 Скачать
1 | 0
Наши сериалы [ 65.48 GB ] Тайны следствия / Сезон: 19 / Серии: 1-24 из 24 [2019 HDTV 1080i] bober100 Скачать
1 | 0
Наши сериалы [ 15.52 GB ] Тайны следствия / Сезон: 19 / Серии: 1-24 из 24 [2019 WEBRip-AVC] bober100 Скачать
1 | 0
Наши сериалы [ 15.58 GB ] Тайны следствия / Сезон: 19 / Серии: 1-24 из 24 [2019 WEB-DLRip] bober100 Скачать
1 | 0

28-11-2019 20:33  

Отключить всю рекламу на сайте

    Дорогой пользователь! Огромная просьба, поблагодарите релизера, оцените раздачу и оставьте свои комментарий, если Вы скачали Тайны следствия через торрент бесплатно! Внесите свою лепту в развитие PiratBit!
    Комментировать посты могут только пользователи прошедшие не сложную регистрацию
    Показать сообщения:    

    Тайны следствия через торрент
    Скачать бесплатно Тайны следствия
    Тайны следствия скачать торрент
    Тайны следствия смотреть онлайн
    Cкачать фильм Тайны следствия бесплатно
    Тайны следствия скачать торрент в хорошем качестве
    Тайны следствия смотреть онлайн бесплатно в хорошем качестве


    Вы не можете начинать темы
    Вы не можете отвечать на сообщения
    Вы не можете редактировать свои сообщения
    Вы не можете удалять свои сообщения
    Вы не можете голосовать в опросах
    Вы не можете прикреплять файлы к сообщениям
    Вы можете скачивать файлы