2 сезон

iTunes

MVO

1

2 сезон

iTunes

iTunes

1 сезон

RePack

30

Новинка

ВАЖНО

ИГРА 18+

pack

RePack

MK11
pack

Легкие деньги

RePack

jed

RePack

fifa19

RePack

RDR2

RePack

NEED FOR SPEED™ PAYBACK

4 сезон

9 сезон

Бесстыжие 9 сезон

Все сериалы

все сериалы на PB.wtf

RePack

FAR CRY 5

Anonymous, добрый день, мы не успеваем собрать деньги на оплату серверов за декабрь и январь, помогите нам пожалуйста в это трудное время. В качестве благодарности мы отключим Вам всю рекламу на сайте (укажите свой ник в строку Ваше имя)!

×
  
Magnet ссылка

Затерянные в космосе / Lost in Space / Сезон: 2 / Серии: 1-10 из 10 (Тим Соутэм) [2019, фантастика, драма, детектив, приключения, семейный, WEB-DL 720p] MVO [LostFilm] pb.wtf

Затерянные в космосе через торрент pb.wtf

Размер: 27.74 GB | Добавлен: 11 мес. назад | Торрент скачан:52 раза
Скачать  

28-12-2019 04:17 Затерянные в космосе Скачать торрент  

Затерянные в космосе | Lost in Space
«Danger will find them»
Год выпуска: 2019
Страна: США
Жанр: Фантастика, драма, детектив, приключения, семейный
Продолжительность: ~01:00:00
Перевод: Профессиональный (многоголосый закадровый) | Lostfilm
Субтитры: Русские (Netflix), английские (SDH)

Режиссёр: Тим Соутэм, Дебора Чоу, Стивен Серджик

В ролях: Молли Паркер, Тоби Стивенс, Макс Дженкинс, Тейлор Расселл, Мина Сандвол, Игнасио Серричио, Паркер Поузи, Брайан Стил, Амелия Берстин, Раза Джеффри

Описание: 2046 год. Космический корабль теряется в космосе и терпит крушение на планете на расстоянии нескольких световых лет от планируемого места назначения. Его обитатели, семья Робинсонов, вынуждены приспособиться и выжить в новых условиях.

rating


Качество: WEB-DL 720p
Формат: MKV

Видео: AVC, 1280 x 582 (2.199), 23.976 fps, ~8460 kbps
Аудио 1 Rus: AC-3, 48 kHz, 2 ch, 384 kbps |LostFilm|
Аудио 2 Eng: E-AC-3, 48 kHz, 6 ch, 768 kbps
скриншот  скриншот  скриншот  скриншот  скриншот  

Общее
Уникальный идентификатор : 42883261220678071844972731359006371303 (0x204304043EF7FC19B8B5FDD20D852DE7)
Полное имя : E:\Lost.In.Space.S02.WEBDL.720p.L.RGzsRutracker\Lost.In.Space.S02E01.WEBDL.720p.L.RGzsRutracker.mkv
Формат : Matroska
Версия формата : Version 4
Размер файла : 3,36 Гбайт
Продолжительность : 50 м. 5 с.
Общий поток : 9615 Кбит/сек
Дата кодирования : UTC 2019-12-27 13:19:18
Программа кодирования : mkvmerge v41.0.0 ('Smarra') 64-bit
Библиотека кодирования : libebml v1.3.9 + libmatroska v1.5.2

Видео
Идентификатор : 1
Формат : AVC
Формат/Информация : Advanced Video Codec
Профиль формата : High@L4.1
Настройки формата : CABAC / 11 Ref Frames
Параметр CABAC формата : Да
Параметр RefFrames формата : 11 кадров
Идентификатор кодека : V_MPEG4/ISO/AVC
Продолжительность : 50 м. 5 с.
Битрейт : 8460 Кбит/сек
Ширина : 1280 пикселей
Высота : 582 пикселя
Соотношение сторон : 2,2:1
Режим частоты кадров : Постоянный
Частота кадров : 23,976 (24000/1001) кадра/сек
Цветовое пространство : YUV
Субдискретизация насыщенности : 4:2:0
Битовая глубина : 8 бит
Тип развёртки : Прогрессивная
Бит/(Пиксели*Кадры) : 0.474
Размер потока : 2,96 Гбайт (88%)
Библиотека кодирования : x264 core 157 r2969 d4099dd
Настройки программы : cabac=1 / ref=11 / deblock=1:-3:-3 / analyse=0x3:0x133 / me=umh / subme=10 / psy=1 / psy_rd=1.00:0.15 / mixed_ref=1 / me_range=48 / chroma_me=1 / trellis=2 / 8x8dct=1 / cqm=0 / deadzone=21,11 / fast_pskip=0 / chroma_qp_offset=-3 / threads=12 / lookahead_threads=2 / sliced_threads=0 / nr=0 / decimate=0 / interlaced=0 / bluray_compat=0 / constrained_intra=0 / bframes=8 / b_pyramid=2 / b_adapt=2 / b_bias=0 / direct=3 / weightb=1 / open_gop=0 / weightp=2 / keyint=250 / keyint_min=23 / scenecut=40 / intra_refresh=0 / rc=crf / mbtree=0 / crf=16.0 / qcomp=0.60 / qpmin=0 / qpmax=69 / qpstep=4 / ip_ratio=1.30 / pb_ratio=1.20 / aq=3:0.80
Язык : English
Default : Да
Forced : Нет

Аудио #1
Идентификатор : 2
Формат : AC-3
Формат/Информация : Audio Coding 3
Коммерческое название : Dolby Digital
Идентификатор кодека : A_AC3
Продолжительность : 50 м. 5 с.
Вид битрейта : Постоянный
Битрейт : 384 Кбит/сек
Каналы : 2 канала
ChannelLayout : L R
Частота : 48,0 КГц
Частота кадров : 31,250 кадров/сек (1536 SPF)
Метод сжатия : С потерями
Размер потока : 138 Мбайт (4%)
Язык : Russian
ServiceKind/String : Complete Main
Default : Да
Forced : Нет

Аудио #2
Идентификатор : 3
Формат : E-AC-3 JOC
Формат/Информация : Enhanced AC-3 with Joint Object Coding
Коммерческое название : Dolby Digital Plus with Dolby Atmos
Идентификатор кодека : A_EAC3
Продолжительность : 50 м. 5 с.
Вид битрейта : Постоянный
Битрейт : 768 Кбит/сек
Каналы : 6 каналов
ChannelLayout : L R C LFE Ls Rs
Частота : 48,0 КГц
Частота кадров : 31,250 кадров/сек (1536 SPF)
Метод сжатия : С потерями
Размер потока : 275 Мбайт (8%)
Заголовок : English
Язык : English
ServiceKind/String : Complete Main
Default : Нет
Forced : Нет
ComplexityIndex : 16
NumberOfDynamicObjects : 15
BedChannelCount/String : 1 канал
BedChannelConfiguration : LFE

Текст #1
Идентификатор : 4
Формат : UTF-8
Идентификатор кодека : S_TEXT/UTF8
Идентификатор кодека/Информация : UTF-8 Plain Text
Продолжительность : 48 м. 44 с.
Битрейт : 84 бит/сек
ElementCount : 632
Размер потока : 30,0 Кбайт (0%)
Язык : Russian
Default : Нет
Forced : Нет

Текст #2
Идентификатор : 5
Формат : UTF-8
Идентификатор кодека : S_TEXT/UTF8
Идентификатор кодека/Информация : UTF-8 Plain Text
Продолжительность : 45 м. 1 с.
Битрейт : 61 бит/сек
ElementCount : 677
Размер потока : 20,2 Кбайт (0%)
Язык : English
Default : Нет
Forced : Нет

Текст #3
Идентификатор : 6
Формат : UTF-8
Идентификатор кодека : S_TEXT/UTF8
Идентификатор кодека/Информация : UTF-8 Plain Text
Продолжительность : 47 м. 12 с.
Битрейт : 68 бит/сек
ElementCount : 778
Размер потока : 23,7 Кбайт (0%)
Заголовок : SDH
Язык : English
Default : Нет
Forced : Нет

Меню
00:00:05.005 : en:Intro start
00:01:10.738 : en:Intro end

Внимание! Раздача ведётся путём добавления новых серий; при каждом добавлении создаётся новый торрент. Чтобы начать докачку новой серии,пользователям необходимо сделать следующее:
(1) остановить скачивание,
(2) удалить старый торрент у себя из клиента (старые серии удалять не надо),
(3) скачать новый торрент и запустить его у себя в клиенте вместо старого, при этом указать клиенту путь в старую папку куда и должнопроисходить скачивание новых серий.

Ваш клиент при этом должен произвести хеширование (проверку) старой папки (если не производит сам - помогите ему сделать это), и будет докачивать только те серии
которых у вас ещё нет. Старые серии при этом не удаляются, а продолжают раздаваться!

Eсли вы уже удалили старые серии, то предотвратить повторную закачку старых серий можно, отжав галочку в соответствующих местах при запуске нового торрента.

По возможности, желательно не удалять старые серии как можно дольше чтобы релизёр не столько продолжал раздавать старые серии, а смог сконцентрироваться на новых.
pb.wtf



Скачать Затерянные в космосе через торрент https://funkyimg.com/i/2YKMV.jpg Скачать фильм Затерянные в космосе через торрент бесплантно в хорошем качестве Описание: 2046 год. Космический корабль теряется в космосе и терпит крушение на планете на расстоянии нескольких световых лет от ... 10 10 9
Info! Золотая раздача, скачанное не засчитывается.
Торрент: Зарегистрирован [2020-01-24 11:00] · скачан: 52 раз
Статус: √ проверено
Размер: 27.74 GB
Как cкачать? Как скачать Затерянные в космосе через торрент | UTorrent

% Раздел Тема Автор DL S | L
Зарубежные сериалы [ 7.4 GB ] Затерянные в космосе / Lost in Space / Сезон: 2 / Серии: 1-10 из 10 [2019 WEB-DLRip] MVO [TVShows] bober100 Скачать
3 | 0
Зарубежные сериалы [ 57.49 GB ] Затерянные в космосе / Lost in Space / Сезон: 2 / Серии: 1-10 из 10 [2019 WEB-DL 1080p] MVO [TVShows] bober100 Скачать
1 | 0
Зарубежные сериалы [ 66.9 GB ] Затерянные в космосе / Lost in Space / Сезон: 2 / Серии: 1-10 из 10 [2019 UHD WEB-DLRip 2160p] DUB [Пифагор / Netflix] bober100 Скачать
1 | 0
Зарубежные сериалы [ 28.62 GB ] Затерянные в космосе / Lost in Space / Сезон: 2 / Серии: 1-10 из 10 [2019 WEBRip 720p] + [MVO] killermax2013 Скачать
1 | 0
Зарубежные сериалы [ 6.33 GB ] Затерянные в космосе / Lost in Space / Сезон: 2 / Серии: 1-10 из 10 [2019 WEB-DLRip] MVO [LostFilm] bober100 Скачать
1 | 0
Зарубежные сериалы [ 16.79 GB ] Затерянные в космосе / Lost in Space / Сезон: 2 / Серии: 1-10 из 10 [2019 WEB-DL 1080p] DUB [Пифагор / Netflix] bober100 Скачать
3 | 0
Зарубежные сериалы [ 6.33 GB ] Затерянные в космосе / Lost in Space / Сезон: 2 / Серии: 1-10 из 10 [2019 WEB-DLRip] DUB [Пифагор / Netflix] bober100 Скачать
1 | 0

28-11-2019 20:33  

Отключить всю рекламу на сайте

    Дорогой пользователь! Огромная просьба, поблагодарите релизера, оцените раздачу и оставьте свои комментарий, если Вы скачали Затерянные в космосе через торрент бесплатно! Внесите свою лепту в развитие PiratBit!
    Комментировать посты могут только пользователи прошедшие не сложную регистрацию
    Показать сообщения:    

    Затерянные в космосе через торрент
    Скачать бесплатно Затерянные в космосе
    Затерянные в космосе скачать торрент
    Затерянные в космосе смотреть онлайн
    Cкачать фильм Затерянные в космосе бесплатно
    Затерянные в космосе скачать торрент в хорошем качестве
    Затерянные в космосе смотреть онлайн бесплатно в хорошем качестве


    Вы не можете начинать темы
    Вы не можете отвечать на сообщения
    Вы не можете редактировать свои сообщения
    Вы не можете удалять свои сообщения
    Вы не можете голосовать в опросах
    Вы не можете прикреплять файлы к сообщениям
    Вы можете скачивать файлы