Ссылка на приватное зеркало нашего сайта всего за 1$. Внимание количество ограничено!!!

2 сезон

iTunes

1 сезон

1

iTunes

iTunes

iTunes

1 сезон

RePack

30

ИГРА 18+

pack

ВАЖНО

!!Акция!!

Alien_RageХит недели

RePack

MK11
pack

Забери бонус

RePack

jed

!!Акция!!

Alien_Rage

RePack

fifa19

RePack

Assassins Creed: Odyssey

RePack

NEED FOR SPEED™ PAYBACK

4 сезон

9 сезон

Бесстыжие 9 сезон

Все сериалы

все сериалы на PB.wtf

RePack

FAR CRY 5
  

Бал вампиров / Dance of the Vampires (Роман Полански) [1967, ужасы, фэнтези, комедия, BDRip 720p by msltel] 2 x MVO, AVO, VO pb.wtf

Бал вампиров через торрент pb.wtf

Размер: 4.27 GB | Добавлен: 9 мес. назад | Торрент скачан:3 раза
Скачать  

28-12-2019 06:54 Бал вампиров Скачать торрент  

Название: Бал вампиров
Оригинальное название: Dance of the Vampires
Год выпуска: 1967
Страна: США, Великобритания
Жанр: ужасы, фэнтези, комедия
Продолжительность: 01:47:24
Перевод: профессиональный многоголосый, авторский, любительский одноголосый

Режиссер: Роман Полански
В ролях: Джек МакГоурэн, Роман Полански, Шэрон Тейт, Ферди Мэйн, Элфи Бэсс, Джесси Робинс, Иэн Кворрир, Терри Даунс, Фиона Льюис

О фильме: Профессор Абронзиус и его неопытный ассистент Альфред отправляются в Трансильванию охотиться на вампиров. Они останавливаются на постоялом дворе в заснеженных Карпатах, и Альфред знакомится с дочерью хозяина прекрасной Сарой. Это знакомство было недолгим: коварный вампир похищает рыжеволосую красавицу и уносит её в свой мрачный замок в горах...



Качество: BDRip 720p
Формат: MKV
Видео: MPEG-4 AVC, 4725 Кбит/с, 1280x534
Аудио 1: русский, AC3, 192 kbps, 2 ch, 48 kHz [закадровый многоголосый, 5 канал]
Аудио 2: русский, AC3, 192 kbps, 2 ch, 48 kHz [закадровый многоголосый, Film Prestige]
Аудио 3: русский, AC3, 192 kbps, 1 ch, 48 kHz [авторский, Антон Алексеев]
Аудио 4: русский, AC3, 192 kbps, 2 ch, 48 kHz [закадровый одноголосый, Александр Герусов]
Аудио 5: английский, AC3, 192 kbps, 2 ch, 48 kHz [оригинал]
Субтитры 1: русские (Film Prestige/zaxxy)
Субтитры 2: русские (Александр Герусов)
Субтитры 3: английские
Главы/чаптеры
Общее
Уникальный идентификатор : 231117774424235664870628948366597069793 (0xADDFAA0BEB63BAF5ACCF113BDCEC9BE1)
Полное имя : D:\Video\Бал вампиров.1967.BDRip 720p by msltel.mkv
Формат : Matroska
Версия формата : Version 4
Размер файла : 4,27 Гбайт
Продолжительность : 1 ч. 47 м.
Общий поток : 5688 Кбит/сек
Название фильма : Rip by msltel
Дата кодирования : UTC 2019-12-28 02:27:15
Программа кодирования : mkvmerge v8.2.0 ('World of Adventure') 64bit
Библиотека кодирования : libebml v1.3.1 + libmatroska v1.4.2

Видео
Идентификатор : 1
Формат : AVC
Формат/Информация : Advanced Video Codec
Профиль формата : High@L4.1
Настройки формата : CABAC / 9 Ref Frames
Параметр CABAC формата : Да
Параметр RefFrames формата : 9 кадров
Идентификатор кодека : V_MPEG4/ISO/AVC
Продолжительность : 1 ч. 47 м.
Битрейт : 4725 Кбит/сек
Ширина : 1280 пикселей
Высота : 534 пикселя
Соотношение сторон : 2,40:1
Режим частоты кадров : Постоянный
Частота кадров : 23,976 (24000/1001) кадра/сек
Цветовое пространство : YUV
Субдискретизация насыщенности : 4:2:0
Битовая глубина : 8 бит
Тип развёртки : Прогрессивная
Бит/(Пиксели*Кадры) : 0.288
Размер потока : 3,54 Гбайт (83%)
Библиотека кодирования : x264 core 157 r2935 545de2f
Настройки программы : cabac=1 / ref=9 / deblock=1:-2:-2 / analyse=0x3:0x113 / me=umh / subme=11 / psy=1 / psy_rd=1.00:0.15 / mixed_ref=1 / me_range=32 / chroma_me=1 / trellis=2 / 8x8dct=1 / cqm=0 / deadzone=21,11 / fast_pskip=0 / chroma_qp_offset=-3 / threads=6 / lookahead_threads=1 / sliced_threads=0 / nr=0 / decimate=1 / interlaced=0 / bluray_compat=0 / constrained_intra=0 / bframes=10 / b_pyramid=2 / b_adapt=2 / b_bias=0 / direct=1 / weightb=1 / open_gop=0 / weightp=2 / keyint=230 / keyint_min=23 / scenecut=40 / intra_refresh=0 / rc_lookahead=40 / rc=crf / mbtree=0 / crf=18.8 / qcomp=0.60 / qpmin=0 / qpmax=69 / qpstep=4 / vbv_maxrate=50000 / vbv_bufsize=62500 / crf_max=0.0 / nal_hrd=none / filler=0 / ip_ratio=1.40 / pb_ratio=1.30 / aq=1:1.00
Язык : English
Default : Да
Forced : Нет

Аудио #1
Идентификатор : 2
Формат : AC-3
Формат/Информация : Audio Coding 3
Коммерческое название : Dolby Digital
Идентификатор кодека : A_AC3
Продолжительность : 1 ч. 47 м.
Вид битрейта : Постоянный
Битрейт : 192 Кбит/сек
Каналы : 2 канала
ChannelLayout : L R
Частота : 48,0 КГц
Частота кадров : 31,250 кадров/сек (1536 SPF)
Метод сжатия : С потерями
Размер потока : 147 Мбайт (3%)
Заголовок : MVO 5 канал
Язык : Russian
ServiceKind/String : Complete Main
Default : Да
Forced : Нет

Аудио #2
Идентификатор : 3
Формат : AC-3
Формат/Информация : Audio Coding 3
Коммерческое название : Dolby Digital
Идентификатор кодека : A_AC3
Продолжительность : 1 ч. 47 м.
Вид битрейта : Постоянный
Битрейт : 192 Кбит/сек
Каналы : 2 канала
ChannelLayout : L R
Частота : 48,0 КГц
Частота кадров : 31,250 кадров/сек (1536 SPF)
Метод сжатия : С потерями
Размер потока : 147 Мбайт (3%)
Заголовок : MVO Film Prestige
Язык : Russian
ServiceKind/String : Complete Main
Default : Нет
Forced : Нет

Аудио #3
Идентификатор : 4
Формат : AC-3
Формат/Информация : Audio Coding 3
Коммерческое название : Dolby Digital
Идентификатор кодека : A_AC3
Продолжительность : 1 ч. 47 м.
Вид битрейта : Постоянный
Битрейт : 192 Кбит/сек
Каналы : 1 канал
ChannelLayout : C
Частота : 48,0 КГц
Частота кадров : 31,250 кадров/сек (1536 SPF)
Метод сжатия : С потерями
Размер потока : 147 Мбайт (3%)
Заголовок : Антон Алекссев
Язык : Russian
ServiceKind/String : Complete Main
Default : Нет
Forced : Нет

Аудио #4
Идентификатор : 5
Формат : AC-3
Формат/Информация : Audio Coding 3
Коммерческое название : Dolby Digital
Идентификатор кодека : A_AC3
Продолжительность : 1 ч. 47 м.
Вид битрейта : Постоянный
Битрейт : 192 Кбит/сек
Каналы : 2 канала
ChannelLayout : L R
Частота : 48,0 КГц
Частота кадров : 31,250 кадров/сек (1536 SPF)
Метод сжатия : С потерями
Размер потока : 147 Мбайт (3%)
Заголовок : Александр Герусов
Язык : Russian
ServiceKind/String : Complete Main
Default : Нет
Forced : Нет

Аудио #5
Идентификатор : 6
Формат : AC-3
Формат/Информация : Audio Coding 3
Коммерческое название : Dolby Digital
Идентификатор кодека : A_AC3
Продолжительность : 1 ч. 47 м.
Вид битрейта : Постоянный
Битрейт : 192 Кбит/сек
Каналы : 2 канала
ChannelLayout : L R
Частота : 48,0 КГц
Частота кадров : 31,250 кадров/сек (1536 SPF)
Метод сжатия : С потерями
Размер потока : 147 Мбайт (3%)
Заголовок : original
Язык : English
ServiceKind/String : Complete Main
Default : Нет
Forced : Нет

Текст #1
Идентификатор : 7
Формат : UTF-8
Идентификатор кодека : S_TEXT/UTF8
Идентификатор кодека/Информация : UTF-8 Plain Text
Продолжительность : 1 ч. 46 м.
Битрейт : 46 бит/сек
ElementCount : 676
Размер потока : 36,2 Кбайт (0%)
Заголовок : русские Film Prestige/zaxxy
Язык : Russian
Default : Нет
Forced : Нет

Текст #2
Идентификатор : 8
Формат : UTF-8
Идентификатор кодека : S_TEXT/UTF8
Идентификатор кодека/Информация : UTF-8 Plain Text
Продолжительность : 1 ч. 46 м.
Битрейт : 48 бит/сек
ElementCount : 691
Размер потока : 38,1 Кбайт (0%)
Заголовок : русские Александр Герусов
Язык : Russian
Default : Нет
Forced : Нет

Текст #3
Идентификатор : 9
Формат : UTF-8
Идентификатор кодека : S_TEXT/UTF8
Идентификатор кодека/Информация : UTF-8 Plain Text
Продолжительность : 1 ч. 44 м.
Битрейт : 29 бит/сек
ElementCount : 670
Размер потока : 22,3 Кбайт (0%)
Заголовок : английские
Язык : English
Default : Нет
Forced : Нет

Меню
00:00:00.000 : en:Credits
00:02:21.558 : en:Welcome to Transylvania
00:05:47.096 : en:Telltale signs
00:09:51.924 : en:Good little fairy
00:13:32.812 : en:The hunchback
00:20:14.129 : en:A qiuck one
00:22:39.608 : en:Bath and a bite
00:27:19.804 : en:Frozen stiff
00:30:36.251 : en:The wrong vampire
00:36:00.867 : en:Castle visitors
00:41:00.708 : en:Meeting the Count
00:45:21.802 : en:Guests for the night
00:50:50.964 : en:Bedding down for daytime
00:55:43.256 : en:Whose coffin?
01:00:47.268 : en:Crypt creepers
01:04:31.701 : en:No staking skills
01:09:47.558 : en:Soapy distraction
01:13:34.451 : en:Taking a peek
01:17:44.534 : en:Bite for bite
01:22:33.865 : en:Wake-up
01:28:30.054 : en:Loose cannon
01:31:02.331 : en:Tonight's bill of fare
01:32:59.365 : en:Party crashers
01:36:53.057 : en:Dances among vampires
01:40:57.217 : en:Dashing through the snow
01:45:00.168 : en:Fangs to him
01:46:43.980 : en:Cast list
pb.wtf



Скачать Бал вампиров через торрент https://c.radikal.ru/c22/1912/92/553e3c4b415d.png Скачать фильм Бал вампиров через торрент бесплантно в хорошем качестве О фильме: Профессор Абронзиус и его неопытный ассистент Альфред отправляются в Трансильванию охотиться на вампиров. Они останавливаются на ... 10 10 1
Info! Золотая раздача, скачанное не засчитывается.
Торрент: Зарегистрирован [2019-12-28 06:54] · скачан: 3 раз
Статус: √ проверено
Размер: 4.27 GB
Как cкачать? Как скачать Бал вампиров через торрент | qTorrent

% Раздел Тема Автор DL S | L
Классика зарубежного кино [ 12.12 GB ] Бал вампиров / Dance of the Vampires [1967 BDRip 1080p by msltel] 2 x MVO AVO VO msltel Скачать
1 | 0
Классика зарубежного кино [ 2.52 GB ] Бал вампиров / Dance of the Vampires [1967 BDRip by msltel] 2 x MVO AVO VO msltel Скачать
1 | 0

28-11-2019 20:33  

Отключить всю рекламу на сайте

    Дорогой пользователь! Огромная просьба, поблагодарите релизера, оцените раздачу и оставьте свои комментарий, если Вы скачали Бал вампиров через торрент бесплатно! Внесите свою лепту в развитие PiratBit!
    Комментировать посты могут только пользователи прошедшие не сложную регистрацию
    Показать сообщения:    

    Бал вампиров через торрент
    Скачать бесплатно Бал вампиров
    Бал вампиров скачать торрент
    Бал вампиров смотреть онлайн
    Cкачать фильм Бал вампиров бесплатно
    Бал вампиров скачать торрент в хорошем качестве
    Бал вампиров смотреть онлайн бесплатно в хорошем качестве


    Вы не можете начинать темы
    Вы не можете отвечать на сообщения
    Вы не можете редактировать свои сообщения
    Вы не можете удалять свои сообщения
    Вы не можете голосовать в опросах
    Вы не можете прикреплять файлы к сообщениям
    Вы можете скачивать файлы